&title=ALL!!!
&artist=塞壬唱片-MSR
&first=0.16
&lv_5=13+
&des_5=hiyori
&inote_5=
(123){4},5-1-3v5[4:1],,8-5-3[16:3],
,8-5-3[16:3],{8},Ch[8:3],,,{4}E6/B6/B8/E1/B1/B2/B3/E4/B7,
{16}4/3h[8:1],,,4,{8}3-1[16:1],5,3/4,{16}5,4,
{8}5,C,{16}5/4h[8:1],,,5,{8}4>2[16:1],6,4/5,{16}6,5,
{8}6,C,{16}6/5h[8:1],,,6,5qq3[16:1],7,,,{8}5/6,{16}7,6x,
{4}7,E6/B6/B8/E1/B1/B3/E4/B2/B7/Cf,{8},,4/6z2[16:1]*z2[16:1],5,
{16}6xh[16:1],A2f,,,6-8[16:1],5,{8}7,6/5,4-2[16:1],{16}3,5,{8}4,
6h[8:1],C,{16}3>1[16:1],4,{8}2,3/4,5<7[16:1],{16}6,4,{8}5,
3h[8:1],C,{4}6-8-4v6[16:3],{32}1,2,{16}3h[16:3],,,,,3,6,
{4}2/7h[16:3],{16}1,8,1,8,1-4[16:1],8,{8}1-6[16:1],1bx-5[16:1],1bx,
{4}1bx,6b-8[16:1],,4b-2[16:1]*-2[16:1],
,5b-1b[16:1],,4bw8[16:1],
,5bw1[16:1]*w1[16:1],,4bw8b[16:1]/5bw1b[16:1],
{2}E5f,Ch[2:1],
{16},,3/6,6/3,{8}6/3,{16}4,5,{8}4-6[16:1],{16}5,3,{8}4,{16}2,5x,
3,6,{8}4h[8:1],C,{16}5,4,{8}5-2[16:1],{16}4,6,{8}5,{16}7,3x,
6,2,{8}5h[8:1],C,{16}5,4,{8}5-3[16:1],{16}4,6,{8}5,{16}7,4x,
6,3,{8}5h[8:1],C,{16}4,5,{8}4-7[16:1],{16}5,3,{8}4,{16}2,6x,
3,7,{8}4h[8:1],C,{16}4,4,{8}5,{16}3,3,{8}6,{16}2,2,
7,1,{8}1-5[16:1],,1/5,6,7/3,{4}2/8-6v4-8-5-3-5-8[8:9],
{1},{4},{16}1,
1,8,2,2,7,3,3,{8}6z2[16:1]*z2[16:1],4/7h[4:1],
{4}6/B6f,{16}3xh[8:1],6xh[8:1],,,2xh[8:1],7xh[8:1],{48},,,,,,{24}1,8,1,8,1,8,
1,8,1,8,1,8,2,8,1,8,1,8,1,8,1,8,1,8,2,8,1,8,1,8,
1,8,1,8,1,8h[8:11],{4}3xh[3:4],{12},,,,,,,,,,,,,,4/7,
6/5qq2[4:1],{48},,,,,,,,{16}5/6x,
7x,{8}8xh[8:1],{16},,7,4,{8}6/5,{16}8p4[16:1],1,7,2,8x,3,
{8}3,{16}2,5,{8}4/3,{16}1q5[16:1],8,2,7,1x,6,{8}6,{16}7,4,
{8}5/6,{16}5x/4x,6,{8}3,{16}6/5,7,{8}4,{16}4/5,3,{8}6,{16}3/4,2,
{8}5-1[16:1]*-1[16:1],{16}4,6,{4}5h[2:3],{1},{4},{16},4/5,
,4,
{8}5/4,{32}4/5,3,2,1,8,7,6,5,4,3,2,1,8,7,6,5,4,3,2,1,{8}8b,7,
6z2[16:1]*z2[16:1],5,{4}6h[4:1]/B6f,{8}3xq7[16:1],{16}5x,4x,{4}2/3xqq5[16:3],
{8}3/8h[4:1],,,7-4[16:1],6/3-8[16:1],7/2,3,5h[4:1],
{4}3h[4:1],{8}6xp2[16:1],{16}4x,5x,{4}7/6xpp4[16:3],6/1h[4:1],
{8},2-5[16:1],3/6-1[16:1],2/7,6,2h[8:5],{16}8b,8x,8x,8x,
8bx,8x,8x,8x,{48}8bx>3[16:1],7x,6x,5x,,,{8}1,8x/4b-7-1-5[16:3],5,{16}4/2b,2,{8}2,
3bV57[12:1]*-6[16:1],2h[4:1],{4}3b,{8}8b/1-4-6-2[16:3],2/7,{16}1/8b,8,8,8,
{4}8bx,{48}7/1bx<6[16:1],2x,3x,4x,,,{8}8,1x/5b-2-8-4[16:3],4,{16}5/7b,7,{8}7,
{4}6bxh[1:1],{12},,,,,,B1f,B2f,B3f,
{4}B4f,{8}6/2-5[16:1],1,2/7v4[0.4878##0.1219],8,7/3>8[16:1],2,
3/5-8[16:1],6,5/2>5[16:1],1,{4}2/7pp8[12:1]*qq6[12:1],7b,
Cf/B8/B4,{8}2/7-4[16:1],8,7/3v8[16:1],2,3/5<8[16:1],6,
5/1-4[16:1],2,1/7<4[16:1],8,{4}7/2-6-4[12:1]*<8[12:1],2b,
Cf/E5,{8}6/2-5[16:1],3,2/6v1[16:1],7,6/4>1[16:1],3,
4/8-5[16:1],7,8/2>5[16:1],1,{4}2/6V82[12:1]*qq5[12:1],6b,
Cf/B5/B4/B8/B1,{8}4/6z2[16:1]*z2[16:1],5,{4}6h[4:1]/B6f,{8}C,5h[16:1]/3h[16:1],
2h[16:1]/6h[16:1],7h[16:1]/1h[16:1],8-4[16:1],{16}7,7,{8}8x/2>5[16:1],1,2/6v1[16:1],7,
6/4>1[16:1],3,4/6-3[16:1],{16}5,5,{4}6x/2-8[16:1]*-5[16:1],2b,
Cf/B8/B1/E8/B5/A5/E2,{8}8/1-5[16:1],{16}2,2,{8}1x/7<4[16:1],8,7/3v8[16:1],2,
3/5<8[16:1],6,5/3-6[16:1],{16}4,4,{4}3x/7pp4[8:1]*pp4[8:1],7b/3b,
B7/B2/B8/B1/B6/B3/B4/B5/A5/E5f,{8}2/7-4[16:1],{16}8,8,{8}7x/3-8[16:1],2,3x/6-1[16:1],5,
6/2-5[16:1],3,2/8-5[16:1],{16}7,7,{4}8x/2qq5[8:1]*qq5[8:1],2b/6b,
B7/B2/B8/B1/B6/B3/B4/B5/A5/E5f,{8}4b/6bz2b[16:1],5b,6bh[4:1]/B6f,{16},,,,5,4,
6,3,7,2,{4}8b-6v4-8-5-3-5-8[4:3],{8},,,,,,1,
{48}1,2,{12}3h[24:5],{8}8,{48}8,7,{12}6h[24:5],2,{48},,2,3,{12}4h[24:5],
{8}7,{48}7,6,{12}5h[12:1],Cf,{48},,,,,,,,,,,,,,3b/E4f,4,{12}5,{48}7b/E8f,8,{24}1,
E
