&title=デッド・パロディ・ダンス
&artist=ど~ぱみん
&first=0.000
&des=炸毛的蒲公英霸主
&lv_5=13+
&des_5=
&inote_5=(132)
{16},,,,
,,,,
,,,,
,,,,
{192}1bxV73-5[16:9],8bxV26-4b[16:9],,,,,,,2bx/7bx,,,,3bx/6bx,,,,5bx/4bx,,,,,,,,,,,,,,,,,,,,,,,,,,,,,,,,
{16},,,,
,,,,
,,,,
{16}2bx/E5f,,,,
8bx/Cf,,,,
E1f/2bx>7b[8:1],,,,
{32}D3,D4,D5,D6,D7,,,,
{24}6bx,,5,7,,,
2x,,4,3,,,
6<1[8:1],,5,7,,,
{16},,,,
{24}2,,4,3,,,
6,,5,7,,,
2>5b[8:1],,4,3,,,
{16},,,,
{24}6,,5,7,,,
2x,,4,3,,,
6<1[8:1],,5,7,,,
{16},,,,
{16}3xh[12:1],,E1,,
6xh[12:1],,C,,
1xh[12:1],,E5,,
2x/7x,,,,
{24}3bx,,4,2,,,
7x,,5,6,,,
3qq4[4:1],,4,2,,,
{16},,,,
{24}7,,5,6,,,
3,,4,2,,,
7qq8b[4:1],,5,6,,,
{16},,,,
{24}2,,1,3,,,
6x,,5,7,,,
3qq4[4:1],,4,2,,,
{16},,,,
{16}6xh[8:1],,,,
5xh[8:1],,,,
4xh[8:1],,,,
3x-7b[8:1],,,,
{64}3bpp2b[2:3]/7bpp6b[2:3],Cf,,,,,,,,,,,,,,,
{16},,,,
,,,,
,,,,
{16},,,,
,,,,
,,,,
,,,,
{16}5x/1x>4[8:1],,,,
,,,,
8<5b[8:1],,,,
,,,,
{16}1>4[8:1]/5<8[8:1],,,,
,,,,
3/7,,,,
5/4-1b[8:1],,,,
{16}8h[4:7],,,,
E1,,,,
E2,,,,
E3,,,,
{16}E4,,,,
E5,,,,
C,,,,
E1,,,,
{16}5x/2xv3-5[24:7],,,,
,,,,
6v7-1b[24:7],,,,
,,,,
{16}4z8[8:3],,,,
,,,,
8p4[8:1]*q4[8:1],,,,
,,,,
{16}Cf,,,,
1h[8:1],,,,
4h[8:1],,,,
5h[8:1],,,,
{16}6h[8:1],,B5,,
4h[8:1],,C,,
6h[8:1],,B5,,
4h[8:1],,C,,
{16}6h[8:1],,5,,
3h[8:1],,4,,
5<8[8:1],,7,,
,,1>4[8:1],,
{16}3,,,,
8h[8:1],,E5,,
2h[8:1],,C,,
6h[8:1],,E1,,
{16}4xh[8:1],,,,
8h[8:1],,,,
5h[8:1],,,,
4h[8:1],,,,
{16}3h[8:1],,B2,,
5h[8:1],,B6,,
3x<6[8:1],,E2/E8,,
,,,,
{16}1xs5[8:1],,1x/8x,,
,,,,
8xz4[8:1],,8x/1x,,
,,,,
{24}2x,6x,2x,6x,2x,6x,
2x,6x,2x,6x,2x,6x,
2x,6x,2x,6x,2x,6x,
{16}Ch[8:1],,,,
{24}6bx,,6,1h[8:1],,,
7,,7,4h[8:1],,,
6-4[32:3],,6,5,,7xh[6:1],
{16},,,,
{24}3,,3,4,,2,
{16}1x,,7/8,,
1-4[8:1]*-6[8:1],,2/4,,
1b,,,,
{24}2h[8:1],,,8,,8,
5h[8:1],,,6,,6,
1h[8:1],,,4,,4,
{16}Cf,,,,
{24}1/6,,,3,,4x,
5,,4x,3,,4x,
5-7[8:1]*-1[8:1],,4x,3,,,
{16},,,,
{24}2b,,2,8h[8:1],,,
3,,3,5h[8:1],,,
2<7[8:1],,2,1,,3xh[6:1],
{16},,,,
{24}6x,,6,5,,5,
7,,7,3,,3,
4,,4,2,,2,
{16}8x-4b[8:1],,,,
{16}8/3>8[8:1],,,,
3/7<4[8:1],,6,,
7/1w5b[8:1],,2,,
1b,,,,
{24}7b,,5,6,,,
2b,,4,3,,,
8b,,5,6x,,6x,
4xqq8b[4:3],,4xq7[3:2],5x,,,
{16},,,,
,,,,
,,,,
,,,,
{16}1h[4:1]/5h[4:1],,,,
{32},2x/6x,3x/7x,4x/8x,,,,,
{16}8h[4:1]/4h[4:1],,,,
{32},7x/3x,6x/2x,1x/5x,,,,,
{16}3v8[8:1],,2,,
7v4[8:1],,6,,
1V35b[32:5]*V75[32:5],,1,,
{32}D2/D1,B1,D3/D8,D4/D7,D5/D6,,,,
{32}3xh[8:1],,,,E6,E5,,,
2xh[8:1],,,,B7,C,,,
1xh[8:1],,,,,2x/8x,3x/7x,4x/6x,
{16}5x,,,,
{32}6xh[8:1],,,,E4,E5,,,
7xh[8:1],,,,B2,C,,,
8xh[8:1],,,,,7x/1x,6x/2x,5x/3x,
{16}4x,,,,
{16}8h[4:1]/4h[4:1],,,,
{32},7x/3x,6x/2x,5x/1x,,,,,
{16}1h[4:1]/5h[4:1],,,,
{32},2x/6x,3x/7x,8x/4x,,,,,
{16}6q2[8:1],,7,,
4v7[8:1],,3,,
8>4b[32:5]*<4[32:5],,8,,
{32}D1/D8,B8,D2/D7,D3/D6,D4/D5,,,,
{32}6xh[8:1],,,,E4,E5,,,
7xh[8:1],,,,B2,C,,,
8xh[8:1],,,,,7x/1x,6x/2x,5x/3x,
{16}4x,,,,
{32}3xh[8:1],,,,E6,E5,,,
2xh[8:1],,,,B7,C,,,
1xh[8:1],,,,,2x/8x,3x/7x,4x/6x,
{16}5x-7>8-4>3-1<1[4:3],,,,
{16}Cf,,,,
,,,,
,,,,
,,,,
{16}2xh[8:1]/E1f,,,4h[8:1],
,,3h[2:1],,
E2,,E3,,
E4,,E5,,
{16}7xh[8:1],,,5h[8:1],
,,6h[2:1],,
E8,,E7,,
E6,,E5,,
{16}2xh[8:1],,,4h[8:1],
,,3,,
3xh[16:1],5xh[16:1],4xh[16:1],6xh[16:1],
5x,,7xh[16:1],5xh[16:1],
{16}6xh[16:1],4xh[16:1],5x,,
2,4,3,3,
5,5,4,4,
6-8[32:3],,,,
{16}6bx/5bx,,,1h[8:1],
,,1,,
4,,4,3,
5,,6/4,,
{16}6h[8:1],,5,5h[8:1],
,4,4h[8:1],,
3,,3,4,
2-4[32:3],,,,
{16}2bx/1bx,,,8h[8:1],
,,8,,
5,6,4,4,
7-5[32:3],,,,
{16}8bx/7bx,,,1h[8:1],
,,1,,
7,8,6,6,
2,1,3,,
{16}E1f/E2/E8,,E3/E4,,
E7/E6,,,,
3h[8:1],,1,,
4,,2/5,,
{16}6h[8:1],,8,,
5,,4/7,,
{24}3,,,4x-1b[8:1]*-7[8:1],,2x,
{16}5x,,,,
{16},,E3/E4,,
E7/E6,,,,
6h[8:1],,8,,
5,,4/7,,
{16}3h[8:1],,1,,
5h[8:1],,7,,
{24}3,,,5x<8b[8:1]*>2[8:1],,4x,
{16}6x,,,,
{16},,E3/E4,,
E7/E6,,,,
1h[8:1],,4,,
7h[8:1],,5,,
{24}2h[8:1],,,5x,,5x,
4x,,3x/6x,,2x/7x,,
{16}1bx-5b[8:1]/8bx-4[8:1],,,,
,,,,
{16}2/6,,4,,
3/7-5[32:3],,5,,
7/3-1[32:3],,1,,
3/7,,5,,
{16}1b-7<6-2>3-5[2:1],,,,
,,,,
5x<5[4:1],,,,
,,,,
{16}Cf,,,,
8h[8:1],,,,
5h[8:1],,,,
4h[8:1],,,,
{16}3h[8:1],,B2,,
5h[8:1],,B6,,
3h[8:1],,B4,,
5h[8:1],,C,,
{16}3h[8:1],,4,,
6h[8:1],,5,,
4-1[8:1],,2,,
,,8-5b[8:1],,
{16}6,,,,
1h[8:1],,E5,,
7h[8:1],,C,,
3h[8:1],,E1,,
{16}5xh[8:1],,,,
1h[8:1],,,,
4h[8:1],,,,
5h[8:1],,,,
{16}6h[8:1],,B7/E7,,
4h[8:1],,B3/E3,,
6x>3[8:1]*-3[8:1],,E2/E8,,
,,,,
{16}1xs5[8:1]/7z3[8:1],,7x/1x,,
,,,,
2xs6[8:1]/8xz4[8:1],,2x/8x,,
,,,,
{24}3x,7x,3x,7x,3x,7x,
3x,7x,3x,7x,3x,7x,
3x,7x,3x,7x,3x,7x,
4x,7x,5x,7x,6x,7x,
{16}8xh[8:15],,,,
,,,,
,,,,
,,,,
{16}1bxh[8:15],,,,
,,,,
,,,,
,,,,
{16}7xh[8:15],,,,
,,,,
,,,,
,,,,
{16}2bxh[8:15],,,,
,,,,
,,,,
,,,,
{16}6xh[8:15],,,,
,,,,
,,,,
,,,,
{16}3bxh[8:15],,,,
,,,,
,,,,
,,,,
{16}5xh[4:7],,,,
,,,,
,,,,
,,,,
{16}4bxh[4:3],,,,
,,,,
,,,,
,,,,
{32}1bx/A6f,E6,E5,,,,,,
8bx/A3f,E4,E5,,,,,,
{16}Cf/1bx-4b[8:1]*-6[8:1],,,,
,,,,
{24}7x-5[32:3],,7x,1x,,,
7x-1[32:3],,2x,3x,,,
7x-3[8:1],,3x,4x,,Cf,
{16},,,,
{24}1,,1,3,,3,
{16}2V41-5[3:1],,4/7,,
1bx,,6bx,,
8bx,,,,
{24}8h[8:1],,,5,,6,
3h[8:1],,,5,,4,
7h[8:1],,,3,,4,
2h[8:1],,,5,,4,
{24}6,,2,1x,,3,
4x,,1,8x,,5,
6x>3b[8:1],,8,7x,,,
{16},,,,
{24}1x-3[32:3],,1x,6x,,,
1x-4[8:1],,7x,6x,,,
1x-5[8:1],,8x,7x,,Cf,
{16},,,,
{24}7,,7,5,,5,
4,,4,2,,2,
{16}1<6b[8:1]*>4[8:1],,8/3,,
,,,,
{24}2h[8:1],,,7,,8,
6h[8:1],,,2,,1,
{16}4bw8b[8:1],,6b/2b,,
Cf/B4/B8/A8/A4,,,,
{24}2b,,4,3,,,
7b,,5,6,,,
1b,,4,3x,,3x,
5x,,5x,4xpp1>2b[8:5],,,
{16},,,,
,,,,
,,,,
,,,,
{24}1bh[8:1],,6x,5x,,,
1h[8:1],,3x,4x,,,
1-5[8:1],,6x,5x,,,
{16},,,,
{24}8h[8:1],,3x,4x,,,
8h[8:1],,6x,5x,,,
8-4[8:1],,3x,4x,,,
{16},,,,
{24}1h[8:1],,6x,5x,,,
1h[8:1],,3x,4x,,,
1-5[8:1],,6x,5x,,,
{16},,,,
{24}8h[8:1],,2x,3x,,,
7h[8:1],,3x,4x,,,
6w2[8:1],,4x,5x,,,
{16},,,,
{24}8bh[8:1],,3x,4x,,,
1h[8:1],,6x,5x,,,
8-5[8:1]*-3[8:1],,3x,4x,,,
{16},,,,
{24}1h[8:1],,6x,5x,,,
8h[8:1],,3x,4x,,,
1-4[8:1]*-6[8:1],,6x,5x,,,
{16},,,,
{24}8h[8:1],,3x,4x,,,
1h[8:1],,6x,5x,,,
8-5[8:1]*-3[8:1],,3x,4x,,,
{16},,,,
{384}4bxV62-8b[4:3],,5bxV37-1[4:3],
{8},,,,,,,,,,,,,,,,,
E
