&title=Bougainvillea
&artist=Jade
&first=0.062
&des=Dasongbing
&lv_5=12+
&des_5=Dasongbing
&inote_5=
(120){4},{8},,,,,,B5,
B6,{16}7,,,7,,,{8}7,,7,
B4,B3,{16}2,,,2,,,{8}2,,2,
B6,B7,{16}8,,,8,,,{8}8,,8,
{4}B2,{16}3,,,3,,,{8}3,,3,
B5,B6,{16}8h,,,8h,,,{8}8h,,8h,
4,B6,{16}1h,,,1h,,,{8}1h,,1h,
6,B2,{16}8h,,,8h,,,{8}8h,,8h,
{16}5<8[8:1],,,4,{4}5>2[8:1],5,{8}8/1,8/1,
4h[4:1]/3h[4:1],,,1h[4:1]/8h[4:1],,,6,5,
{16}4h[8:1]/3h[8:1],,,4h[8:1]/3h[8:1],,,{8}2h[8:1]/1h[8:1],,,5/4,5/4,
7h[4:1]/6h[4:1],,,4h[4:1]/3h[4:1],,,2,1,
8h[8:1],{16}5,7h[8:1],,4,{8}6h[8:1],3,{16}4,5,{8}4,B6/B3,
1xh[4:1]/7xh[4:1],,,5h[4:1]/4h[4:1],,,2,1,
{16}6h[8:1]/5h[8:1],,,8h[8:1]/7h[8:1],,,{8}8h[8:1]/7h[8:1],,,5/4,5/4,
7h[4:1]/5h[4:1],,,7h[4:1]/1h[4:1],,,3,4,
7h[8:1],{16}5,6h[8:1],,4,{8}5h[8:1],{16}3,4h[8:1],,2,{8}7/5,5/7,
{4}5pp8[4:7],4,4,3,
3,2,2,1pp4[4:7]*-5[8:1],
1,8,8,7,
7,6,6,B5,
{8}5/4,5/4,3,3,8/1,8/1,7,7,
6/5,5/6,4,4,3/2,3/2,{32}E5,E6,E7,E8,E1,E2,E3,E4,
{16}4x,4x,5,5,3,3,6,6,2,2,7,7,1,1,8,8,
{4}4,4,4,Cf,
5<4b[4:1],{32}E6,E7,E8,E1,E2,E3,E4,E5,,,,,,,,,{4}4h[8:1],
{8}3/6<1[8:1],1<6[8:1],,,3-8[8:1],7-4[8:1],3,7,
{4}6h[8:1],{8}5-1[8:1],4-8[8:1],5-7[8:1],4-2[8:1],5-1-7[4:1],4,
{4}5,{8}4>2[8:1],4-7[8:1],4-1[8:1],4<6[8:1],4,4,
{4}3>7[4:1],7>3[4:1],{8},,6-8[8:1],7,
3-5[8:1],2,,,{4}4>5b[4:1],{32}E5,E4,E3,E2,E1,E8,E7,E6,
,,,,,,,,{8}5<2[4:1],6,{4}4>7[4:1],4,
{16}6,,,4,{4}5,3/2,5/4,
5-8>1-6[4:1],5,{8}4-1<8-3[4:1],3,{4}5,
{8}7,8-5[8:1],1-4[8:1],8-6[8:1],1V37[4:1],8,1,4,
{16}6,6,6,6,{8}6,5,{16}4<3b[4:1],3,3,3,{32}E5,E6,E7,E8,E1,E2,E3,E4,
,,,,,,,,{8}5>2[8:1],2<6[8:1],{4}5,4h[8:1],
2h[8:1]/6<1[8:1],{8}6-2[8:1],5,6>3[8:1],,,1,
{4}2>5[8:1],{8}5/2-6[8:1],7,2,7,{16}4,4,4,4,
{8}5,5,{16}5,5,5,5,{4}6<5b[4:1],{32}E7,E8,E1,E2,E3,E4,E5,E6,
,,,,,,,,{4}5,5,Cf,
{16}6/5,,,4,{8}5,4/3,{16}2,1,,,{4}4/5,
{32}5bxp1[8:1]/4bx>2[8:1],A6/E6,D7/E7,A7/E8,{8}D8/A8,{4}4b/5b,{64}5bxp1[8:1]/4bx>2[8:1],,,A6/E6,,D7/E7,,A7/E8,,D8/A8,,,,,,,{4}5b/4b,
{16}6/5,,,4,{8}5,4/3,{16}2,1,,,{4}4/5,
{32}5bxp1[8:1]/4bx>2[8:1],A6/E6,D7/E7,A7/E8,{8}D8/A8,{4}4b/5b,{32}5bxp1[8:1]/4bx>2[8:1],A6/E6,D7/E7,A7/E8,{8}D8/A8,{4}5b/4b,
{16}3/4,,,5,{8}4,5/6,{16}7,8,,,{4}5/4,
{32}4bxq8[8:1]/5bx<7[8:1],A3/E4,D3/E3,A2/E2,{8}D2/A1,{4}5b/4b,{32}4bxq8[8:1]/5bx<7[8:1],A3/E4,D3/E3,A2/E2,{8}D2/A1,{4}4b/5b,
{16}3/4,,,5,{8}4,5/6,{16}7,8,,,{4}5/4,
4/E6,4/E6,5/E4,{8}5b/4b,5b/4b,
{16}2/1,,,8,{8}1,8/7,{16}6,5,,,{4}8/1,
{32}1bxp5[8:1]/8bx<6[8:1],A2/E2,D3/E3,A3/E4,{8}D4/A4,{4}8b/1b,{32}1bxp5[8:1]/8bx<6[8:1],A2/E2,D3/E3,A3/E4,{8}D4/A4,{4}1b/8b,
{16}2/1,,,8,{8}1,8/7,{16}6,5,,,{4}8/1,
{32}8bx<6[8:1]/1bxp5[8:1],A2/E2,D3/E3,A3/E4,{8}D4/A4,{4}8b/1b,{32}1bp5[8:1]/8b<6[8:1],A2/E2,D3/E3,A3/E4,{8}D4/A4,{4}1b/8b,
{16}7/8,,,1,{8}8,1/2,{16}3,4,,,{4}1/8,
{32}8bxq4[8:1]/1bx>3[8:1],A7/E8,D7/E7,A6/E6,{8}D6/A5,{4}1b/8b,{32}8bxq4[8:1]/1bx>3[8:1],A7/E8,D7/E7,A6/E6,{8}D6/A5,{4}8b/1b,
{16}7/8,,,1,{8}8,1/2,{16}3,4,,,{4}1/8,
5,5,5,1-5[32:1],
{1}Cf,
E
