&title=死月
&artist=SHK
&first=1.6
&des=死BG
&lv_5=13+
&inote_5=(160)
{8}
3/5,2<4[8:3]/4,1/7,2/8h[8:3],,,,,1w5[8:1],,1,,8w4[8:1],,8,,
{8}
4/6,1/7>5[8:3],2/8,1h[8:3]/7,,,,,4w8[8:1],,4,,5w1[8:1],,5,,
{8}
3/4,5/6>1b[8:3],7/8,2h[8:3]/6,,,,,1-5[8:1]/8-4[8:1],,1/8,,2-6[8:1]/7-3[8:1],,2/7,,
{8}
7/8,1/2<5b[8:3],3/4,2/6h[8:3],,,,,1<7[8:1]*>3[8:1],,1-4[8:1]*-6[8:1],,1-5[8:1]*w5[8:1],,1,,
{4}
Ch[4:3],,,,
{16}
2h[4:1]/5,,,,C,,6,5,7h[4:1],,,,C,,4,5,3h[4:1],,,,C,,6,5,8h[4:1],,,,C,,2,4,
{16}
2h[4:1],,,,C,,6,4,6h[4:1],,,,Ch[4:4],,,,8h[4:1],,,,,,,,1<6[8:1],,,,1,,,,
{16}
7h[4:1]/5,,,,B3,,3,4,2h[4:1],,,,B6,,5,4,6h[4:1],,,,B1,,2,3,2h[4:1],,,,B8,,7,6,
{16}
7h[4:1],,,,B2,,1,8,1h[4:1],,,,8h[4:1],,,,1>4[4:1],,8,,7,,6,,5<8[4:1],,4,,3,,2,,
{8}
1pp4[4:2],6,7,8,,6,7,8,1qq5[4:2],4,3,2,,4,3,2,
{8}
1>5p1[4:2],6,7,8,,6,7,8,1-6[8:1],1,5-2[8:1],5,7-4[8:1],7,3-8[8:1],3,
{8}
5>8[8:3],6,7x,8q5[8:2],,6,7x,8,1q6>1[8:5],8,7x,6,,8,7x,6,
{8}
5,5<2p5[8:5],5x,5,,2,3x,4-8[8:1],4,4,6x-2[8:1],6,1-5[8:1],1,7x-3[8:1],7,
{4}
4x>5[4:7],A5,A6,A7,8x<1[4:7],A1,A2,A3,4x>1[4:3],A5,A6,A7,8x<5b[4:3],E2,E3,E4,
{4}
4>4V28V64s8[4:14],E5,E6,E7,A8,E2,E3,E4,E8,E7,E6,4xz8b[4:3],,,,,
{8}
6h[8:3]/2,3,4,5h[8:4],6,7,8,1h[8:4],6,5,4,3h[2:1],2,1,8,7,
(150)6x/C,6,5,5,
(140)4x/C,4,3,3,
(130)2x,2,2,2,
(120)1hx[8:1],2h[8:1],3h[8:1],4h[64:23],
(160)
{16}
,,,,,1h,,,,,,,,,,,
{32}
1bq4>1b[4:5]/8bp5<8b[4:5],B8/B1,Cf,B4/B5,A4/A5,,,,
{4}
,,,,,,,
{16}
4,5,4,5,3,6,3,6,2,7,2,7,1,2,3,4,
{8}
1>3[8:1]/5,8,7>1[8:1]/1,6,5/7p3[8:1],6,7/1q5[8:1]*>5[8:1],2,
{16}
A1f,,,,3x/7x,,3/7,4/6,5w1[8:1],,,,5,,,,
{16}
3/1x>4[8:1],,8,,1/7,,6,5,4q8[8:1]/3,,2,,1>4[8:1],,2,,
{16}
1/7,,8p4[8:1],,1,,8/3,2,1q5[8:1],,,,A1f,,,,
{8}
6/8<6[8:1],1,2<8[8:1]/8,3,4/2q6[8:1],3,2/8p4[8:1]*<8b[4:1],7,
{16}
A8f,,,,,,,,1p5[8:1],2,3,4,1/5,,,,
{16}
6/8<5[8:1],,1,,2/8,,3,4,5p1[8:1]/6,,7,,8p4[8:1],,7,,
{8}
8<4[8:1],2q6[8:1],8p4[8:1],2,8w4[8:1],,A8f,,
{8}
4-8[8:1]/5,3,4/6-2[8:1],7,3-8[8:1]/6,4,3/7-4[8:1],8,
{8}
2-6[8:1]/7,1,2/8-5[8:1],7,3-5[8:1]/8,2,3/6,7,
{8}
1<6[8:1]/8,2,1/3,4,5>2[8:1]/7,6,5/7,8,
{8}
1/2,3/4,5/6>4[8:1],7/8>2[8:1],6,8,Cf,,
{8}
2-4[8:1],1-5[8:1],2,1,3-7[8:1],4-6[8:1],3,4,8>2[8:1],7q3[8:1],8,7,2v7[8:1],3-6[8:1],2,3,
{8}
1-6[8:1],8,1-4[8:1]/3,2,1<6[8:1]/7,8,1>4[8:1]/3,2,1/8,7,6,5,3/4,8/7,5/6,1/2,
{32}
2,3,4,5,6,7,8,1,2,3,4,5,6,7,8,1,2,3,4,5,6,7,8,1,2b/6b,,,,,,,,
{4}
1>5[4:1],5<1[4:1],1>5[4:1],5<1[4:1],1>1[4:2],C,1>5[4:1],5<5[4:2],
{8}
C,,5<1[4:1],,1>5[4:1],,5<1[4:1],,1x>2>3<4<5b[4:1],1x,5x<6-8>1b[4:1],5x,1x-3-5b[4:1],1x,5x,5x,
{4}
7,2/6,5,4/8,3,2/6h,1,8/4h,
{8}
3/7,6,5x/1,4,3h/7,2,1h/5x,8,
{16}
7h,6x,5,4x,3h,2,1x,8,
{32}
7/2x,3x,4xh,5h,6xh,7x,8xh,1xh,2bx,,,,,,,,
{8}
6hx[8:1]/Ch[8:4],,,,,,,3hx[16:1],3xh[8:1]/Ch[8:4],,,,,,5hx[8:1],,
{8}
5hx[8:3]/4xh,3,2,1,8hx[8:3]/7xh,6,5,4,2h[8:1],3h[8:1],4h[8:1],5h[8:1],7h[8:1],1h[8:1],5bh[8:1],1bh[16:7],
{16}
,,,,,C,,,,,,,,,,,
{32}
1b-6-4-1b[4:7]/5b,2x/6x,3x/7x,4x/8x,5hx[8:15]/1x,,,,
{4}
,,,,,,,,,,,
{1}
4h[4:3]/A8f/D8/D1/E8/E1,6h[4:3]/A2f/D3/D2/E2/E3,1h[4:3]/A5/B5f/E6/E5,7h[4:3]/A3/B3f/E3/E4,
{1}
1-4[4:2]/A7/A8/D8f,5<8[4:2]/A4/D4f/A3,1-5b[4:2]/Chf[128:1],
{16}
2h[4:1]/7h[4:1],,,,,,,,1,8,1,8,1,8,1,8,
{32}
1b-5[8:1],2,3,4,7,,,,1>4[8:1],,,,3,,,,1/7v4[8:1],,,,6,,,,1/7,,,,,,,,
{32}
3/5,6,7,8,3>1<7[4:1],,,,1<5b[4:1]/2,,,,3/7,,,,7h[4:1],,,,,,,,,,,,,,,,
{32}
7/5<8[8:1],,,,4,,,,3/5,,,,3,,4,,5<8[8:1]/1>4b[8:1],,,,3/7,,,,1/5,,,,,,,,
{32}
2>6[4:1],,,,4<8b[4:1],,,,2,,,,8,,,,8w4b[8:1],,,,,,,,A8,,,,,,,,
{32}
8b-4[8:1],7,6,5,2,,,,8<5[8:1],,,,6,,,,8/1>4[8:1],,,,2,,,,8w4[8:1]/1,7,6,5,,,,,
{16}
A8f,,,,4q8[8:1],3,2,1,8<4[8:1]*>4[8:1],,,,,,,,
{16}
2>4[12:1],,5<7[12:1],,2,,8>8[8:3]*>8[8:3],,,,,,8xbw4b[8:1],,,,
{16}
A8f,,,,,,4/5,,4z8[8:1]/5s1[8:1],,,,A4/A5/D5,,,,
{32}
2x-8[8:1],3,4,5,7,,,,2,,,,7,,,,2x-8[8:1],3,4,5,7,,,,2,,,,7,,,,
{32}
8x>2[8:1],7,6,5,3,,,,8,,,,3,,,,8x>2[8:1],7,6,5,3,,,,8,,,,3,,,,
{32}
3x-8[8:1],4,5,6,8,,,,3,,,,5,,,,3x-8[8:1],4,5,6,8,,,,3,,,,5,,,,
{8}
6-3[8:1],6,2-7[8:1],2,5-8[8:1],5,E2f,,
{32}
1b/8x<5[8:1],2,3,4,7,,,,1/8,,,,2,,,,1x-5[8:1]/8b-4[8:1],2,3,4,7,,,,1/8,,,,,,,,
{32}
2x>5[8:1]/8b,7,6,5,3,,,,2/8-4[8:1],,,,7,,,,2b/8x<5[8:1],,,,3,,,,2/8,3,4,5,,,,,
{32}
1b/8x<5[8:1],2,3,4,7,,,,1/8,,,,2,,,,1x/8b-4[8:1],2,3,4,7,,,,1/8,,,,2,,,,
{32}
1-5[8:1],,,,8-4[8:1],,,,1,,,,8,,,,1b-5[8:1],2,3,4,8b-4[8:1],7,6,5,1b,,,,8b,,,,
{4}
E5,B5/B4,B2/B7/C,E1/B8/B1/A8/A1,
{16}
1x,1,1,1,1,1,1,1,1,1,1,1,1,1,1,1,
{32}
1bx,2/8,3/7,4/6,5bh[8:29],,,,
{4}
,,,,,,,
{16}
B1,B2,B3,B4,B5,B6,B7,B8,E1,E2,E3,E4,E5,E6,E7,E8,D1,D2,D3,D4,D5,D6,D7,D8,
{16}
D1/E1,D2/E2,D3/E3,D4/E4,D5/E5,D6/E6,D7/E7,D8/E8,
{4}
C/E1f/D1/A8/A1,E
