&title=Quon
&artist=Feryquitous
&first=-0.559
&des=Aterla
&lv_5=13.8
&des_5=Aterla
&inote_5=
(189){4},,,,{1}8h[8:15],
{8}4,4,,4,,4h[4:1],,,3/7,
2/6,{4}5/1h[8:13],,5,
{8},5,,,,5h[8:1],,,2>5[8:3],
,,5<8[8:3],,,{4}8>3[8:3],
{8},3qq1[8:3]*pp5[8:3],,,,,,,7<3[2:1],
,,5,,,{4}2-6-2[8:1],
{8},,5,{16}5,4,{8}5,3/6,{16}1,8,7,6,
{8}5h[8:1],4h[4:1],{4}5h[8:1],{8}3,3,{16}6,4,5,3,
{8}6-3-6[4:1]/2-7-2[4:1],,,,,1-5[8:1],{4}5-3[8:1]*-7[8:1],
,2h[8:1],{8}8,7,1,2,
5,5,5,3,6/4,2,{16}4,5,{8}3,
4h[8:1],5h[8:1],4h[8:1],6,1-5-1[8:1],5,,,,8-4-8[8:1],
{4}4,{8}1,1-5[8:1],,1,
6,6,{16}1,2,3,4,{8}7,7,5,5,
8,8-6[8:1],,8-5[8:1],,8-4[8:1],,8,
2>5[8:1],5-2[8:1],2V48[8:1],8pp5[8:9],,7,{4}7,
{8},7,{4}7,{8},7,{4}7,
{8}2>5[8:1],5-2[8:1],2V48[8:1],7,,7q2[8:7],,7<2[8:5],
,,,,,,,,7<4[8:1],
4-7[8:1],7V51[8:1],1qq4[8:9],,2,{4}2,
{8},2,{4}2,{8},2,{4}2,
{8}7<4[8:1],4-7[8:1],7V51[8:1],2,,2p7[8:7],,2>7[8:5],
,,,,,,,,8h[8:1],
5h[8:1],6h[8:1],1h[8:1],{4}B3,{8}8h[8:1],5h[8:1],
6h[8:1],1h[8:1],3h[8:1],2,3h[8:1],B5,3,B7,
1h[8:1],4h[8:1],3h[8:1],8h[8:1],{4}B6,{8}1h[8:1],4h[8:1],
3h[8:1],8h[8:1],6h[8:1],7,6h[8:1],B4,6,B2,
5h[8:1],8h[8:1],6h[8:1],1h[8:1],{4}B3,{8}5h[8:1],8h[8:1],
6h[8:1],1h[8:1],3h[8:1],2,3h[8:1],B2,3,B5,
4h[8:1],1h[8:1],3h[8:1],8h[8:1],{4}B6,{8}4h[8:1],1h[8:1],
3h[8:1],8h[8:1],6h[8:1],7,6h[8:1],B7,6,B4,
2-5[8:1],{16}8,8,{4}2,{8}7-4[8:1],{16}1,1,{4}7,
{8}2,{16}5,5,{8}4,8,1,1/7-3[8:1],,7b/2,
5x,5,{16}7,4,7,4,{2}6bv3[8:1]/3bv6[8:1],
{16}8,7,6,5,4/8,1,2,3,{8}4h[8:1],8-4-6-1[4:1],,8,
{4}2b,{8}5,7bv4[8:1],,7,{4}2bv5[8:1],
{8}2,4bv7[8:1],,4,1,1bxv4[8:1],,6,
{4}8bv5[8:1],{8}4,2b,{4}2-6-2[8:1],2,
{8}5,5,{4}C/E3/B2,{32}1,8,7,6,4,3,2,1,,,,,{8}E7/C/B6,
7x-4[8:1],{16}1,1,{4}7,{8}2-5[8:1],{16}8,8,{4}2,
{8}7,{16}4,4,{8}5,1,8,8/2-6[8:1],,2b/7,
4x,4,{16}2,5,2,5,{2}3bv6[8:1]/6bv3[8:1],
{16}1,2,3,4,5/1,8,7,6,{8}5h[8:1],1-5-3-8[4:1],,1,
{4}7b,{8}4,2bv5[8:1],,2,{4}7bv4[8:1],
{8}7,5bv2[8:1],,5,8,8bxv5[8:1],,3,
{4}1bv4[8:1],{8}5,7b,{2}7-3-7[8:1],
{16}4,6,3,6,2,6,{8}1,8<6[32:3],1,{32}1/8,2,{16}3,,,{8}4/5xh[8:1],
,,4,{4}5h[8:1],4pp3[2:1],
{8},5h,,,{4}5h[8:1],3,
{8}4/3h[8:1],,,4,3h[8:1],5,{4}5q6[2:1],
{8}5,3h,,,{4}3h[8:1],7,
{8}2/7h[8:1],,,2,7h[8:1],5,{4}5,
{8}4,7h,,4,7h[8:1],4,,,7/1h[8:1],
,,7,{4}1h[8:1],7,
{8},5/1h,{4}5,{8}8/1h[8:1],8,{32}8,7,6,5,,,,,{4}4h[4:1],
{8}5,3h[8:5],,,8,7,
{4}6h[8:3],{8}5,4,,,{4}3/7,
{8}6h[4:1],,,6h[4:1],,3h[8:3],4,5,
6h[4:1],,,6h[8:3],{32},,,,,,,,4,D4,A3,D3,A2,D2,A1,D1,
{8}7h[8:5],,,6,,2,,,{2}2h[4:3],
{4}7,4,
{8}3q6[2:3],,,1,,,{4}6h[1:1],
{8},,,,,,,,5b,
6,5,4,6/E7,B8,{4}E2,
{8}4b,3,4,5,3/E3,B1,{4}E8,
{8}5b/4b,6/3,7/2,8/1,B8/B1,E7/E3,{4}B5/B4,
{8}8h[16:1],1h[16:1],8h[16:1],1h[16:1],{32}7h,6h,5h,4h,3h,2h,1h,8h,{8}7bxh,3x,
6-1[8:1],1-3[8:1],3v8[8:1],3,4,4q2[8:3]*<2[8:3],,4,
,,,3<6[8:1],6<1-5b[4:1],1-4[8:1],,,,2,
2,5,{16}6,4,6,4,{8}7qq1[8:3],3,
7h[8:3],,,,,8/2-5[8:1],,2,
7-4[8:1],4-7[8:1],7pp5[4:1],1,2,2,2-4[8:1],2,
{4}2-8[8:1]/6-4[8:1],2/6,{8}1,5,1,5,
2-6[8:1],6-4-8[4:1],4-8-6b[4:1],8-2b[8:1],{16},,,,,,3xh[2:1],5xh[16:7],
,,,,,,,,,,{8}B4,B6,B1,
7<4[8:1],8-4[8:1],7-3[8:1],8>3[8:1],7,8pp5[2:1],,4h[2:1],
,,,,3-6[8:1],6,,,2>5[8:1],
1-5[8:1],2-6[8:1],1<6[8:1],2,1qq4[2:1],,5h[2:1],
,,,,6-3[8:1],3-7[8:1],,,2,
3,4,5,6/2,7b-5b[8:1]/1b-5b[8:1],,7b-3b[8:1]/1b-3b[8:1],
,7b-5b[8:1]/1b-5b[8:1],,7b/1b,,B4/E4,B7/E7,B1/B2,
8b<5b[8:3],,,5b>2b[8:3],,,{4}2b<7b[8:3],
{8},,,1,2,3,4/5,7,
1-5[8:1],5-3-1[8:1]*V71[8:1],{4}1,{8},7<4pp1[8:7]/3>8pp5[8:7],,7/3,
,,,,,,,,8-4[8:1],
4-6-8[8:1]*V28[8:1],{4}8,{8},2>4pp8[8:7]/6<8pp4[8:7],,2/6,
,,,,,,,,{4}7h[2:1],
{8}5,4,{4}3h[2:1],6,
5h[8:3],{8}4,3-8[8:1],,3/7,6,5,
4h[8:3],1,2,3h[8:3],,5,{4}6h[4:1],
{8},,8,5,,2/7,,1,
4h[4:3],5,6,7,{2}8h[4:1],
{8}1/5h[8:5],2,3,4h[4:1],,,6,2,
8h[2:1],1,{4}4h[4:1],,8/4,
{8}2,6q1[2:1],,2,,3,,4,
{4}3h[2:1],{8}1,8,{4}7h[2:1],2,
1h[8:3],{8}8,7-4[8:1],,7/3,2,1,
8h[8:3],5,6,7h[8:5],,1,{4}2h[8:3],
{8},,5,1,,8/4,,5,
8h[4:3],1,2,3,{2}4h[4:1],
{8}5/1h[8:5],6,7,8h[4:1],,,2,6,
4h[2:1],5,{4}8h[4:1],,4/8,
{8}6,2q5[2:1],,6,,7,,8,
{4}1-5[4:7],{8}2,2,{4}7,{8}3,3,
,6,,4,,1-5[8:1],,,,2,
{4}2h[4:1],7,7,
{8}4,4,,6,,4,5-1[1:3],4,
{1}5,
E
