&title=Chariot
&artist=USAO
&first=0
&des_5=シュロ over Tina-II
&lv_5=14
&des=シュロ over Tina-II
&wholebpm=128
&inote_5=(128){1},
{16}4,,6,5,,4,5,,5,,3,4,,5,4,,
{16}4,,6,5,,3,4,,5,,2,4,,7,5,,
{16}6,6,3,3,8,8,1,1,{32}8,7,6,5,4,3,2,1,8,7,6,5,4,3,2,1,
{16}8h[4:3],,,,,,,,1-5[8:1],,2,,1,,,,
{32}2/8b-3-5[4:1],7,6,5,{16},,8/5-1[8:1],,,,7-4-8[4:1],,,,8-3-1[4:1],,,,
{16}1-5-8[4:1],,,,4,,,,3,,7,5,,2,4,,
{32}1-5-8[4:1],2,3,4,{16},,12,,,,{32}1-6-2[4:1],2,3,4,{16},,13,,,,
{16}4,4,8,8,37,,6,5,,2,4,,35,,57,,
{32}8b/4,7,6,5,,,,,{16}3,3,8h[8:1],2h[8:1],,8,2h[8:1],1h[8:1],,2,1h[8:1],3h[8:1],
{16},4,3h[8:1],5h[8:1],,3,5h[8:1],4h[8:1],,5,4h[8:1],5h[8:1],,4,5,4,
{16}3b/6h[8:1],,,,2,2,8,17,,38,,15,,2,6,4,
{32}8,1,2,3,4,5,6,,{16},,E2,,E8,E4,,E6/D6,C,,,,
{16}2,6,3,5,3,7,3,6,4,6,2,6,3,7,2,6,
{16}4,5,4,5,3,6,2,7,8-4[8:1],,2/1-5[8:1],,8,,1,,
{16}6,,6,6,4,6,5,6,3,4,2,5,3,4,2,5,
{16}3,5,3,3,5,3,4,3,8-4[8:1],,7,1,8,,,,
{16}3,5,4,4,4,6,4,5,5,5,3,5,4,6,3,5,
{16}4,4,5,5,3,3,6,6,7/8-4[8:1],,2/1-5[8:1],,8,,1,,
{16}6,,6,6,4,6,5,6,3,4,2,5,3,4,2,5,
{16}1,7,1,7,1-5[8:1],8,1V37b[4:1],8,1,,,,,,,,
{16}5>1[8:1],,4,,3v6[8:1]/5,,,,,,8,8,4,7,3,5,
{16}4>8[8:1],,3,,2v5[8:1]/4,,,,,,7,7,3,6,2,4,
{16}1-5-2[16:3],,6,6,1<3[4:1],,,,1,,2,,2,,1,1,
{16}8-4-7[16:3],1,,1,8>6[4:1],,,,8,,,7,7h[8:1],,C,,
{16}6,,2<7[8:1],2,4-8[8:1],,2-5-1[4:1],,4,,2,,,,7,,
{16}2,6,4h[4:1],,5V36[8:1],3,6-2-7[16:3],2,,,,,,,3,,
{16}8,8,4,,26,,3,3,7,7,18,,2-5[8:1]/7-4[8:1],,18,,
{16}2b/7b,,,,,,,,Ch[4:1],,,,B8/B1,,,,
{16}4x,4,,36,36,,3>7b[8:1]/6h[8:1],,,,{32}6x<2[8:1],E6,E5,E4,{16},,,,
{16}5x,5,,63,63,,6<2b[8:1]/3h[8:1],,,,{32}3x>7[8:1],E4,E5,E6,{16},,,,
{16}4x,4,,36,36,,3p7b[8:1]/6h[8:1],,,,{32}6xq2[8:1],E6,B5,B4,{16}E4,,{32}3xp7b[8:1],E4,B4,B5,
{16}E6,,{32}6xq2[8:1],E6,B5,B4,{16}E4,,{32}3x>6b[16:3],E4,B4,B5,{16}E6,,,,,,,,
{16}45,45,,24,2h[8:1]/4h[8:1],,{24},35,46,{16}7h[8:1]/5h[8:1],,{24},64,53,{16}2h[8:1]/4h,,5x,,
{16}54,54,,75,7h[8:1]/5h[8:1],,{24},64,53,{16}2h[8:1]/4h[8:1],,{24},35,46,{16}7h[8:1]/5h,,4x,,
{16}45,45,,45,4h[8:1]/5h[8:1],,{24},36,27,{16}1h[8:1]/8h[8:1],,{24},27,36,{16}4h[8:1]/5h[8:1],,{24},36,27,
{16}1h[8:1]/8h[8:1],,{24},27,36,{16}4h[8:1]/5h[8:1],,{24},36,27,{16}1h[8:1]/8h[8:1],,{32},E8`E2,B7/B2,B6/B3,{16}E4/E6/E5f,,,,
{16}7h[16:3],,,1h[16:3],,,8,,2,1,2,3,2,,24,,
{16}6h[16:3],,,8h[16:3],,,7,,1,8,1,2,1,,34,,
{16}2h[16:3],,,8h[16:3],,,1,,7,8,7,6,7,,75,,
{16}3,3,8,8,1,,6,6,1>4[8:1],1,8,,1,,,,
{16}6,6,5,6,3,4,2,5,3,3,4,3,6,5,7,4,
{16}7,7,5,6,3,4,2,5,2,2,4,3,6,5,7,4,
{16}3,3,6,6,1,1,8,8,{32}2,3,4,5,6,7,8,1,26,5,4,3,2,1,8,7,
{16}6b/Cf,,,,,,4x/5x,,2x,8x,,3xh[16:1]/7xh[16:1],,,,,
{32}2-6[8:1],3,4,5,6,7,8,1,{16}2-8[8:1],,5,5,2-4[8:1],,6,,2-5[8:1],,7-3[8:1],7,
{16}2-6[8:1],,7>2[8:1],,2,,7,,3,,5,45,,6,{32}6-1[8:1],5,6,5,
{16}6-3[8:1],,,,,,8-2[8:1],,7-3[8:1],,8-4[8:1],,7-5[8:1],,8,,
{16}7-1[8:1],,3,3,7-3[8:1],,2,2,7,,2,2,5,4,6,5,
{16}8b,,,,4,7,7,7,4,6,6,6,4,5,5,5,
{16}3,4,4,4,3,5,5,5,3,6,6,6,2,7,7,7,
{16}1,8,1,1,7,1,6,1,5,5,3,3,7,7,2,2,
{32}8b-6-2-4b[4:2],B8,C,B4,{16}A4,,,,,,,,,,,,,,
{16}2,6,4,4,4,7,3,5,5,5,3,3,3,6,6,6,
{16}2,7,2,2,7,2,2,2,1-5[8:1],,7/8-4[8:1],,,,,,
{16}3,,3,3,5,3,3,3,6,4,6,6,4,6,6,6,
{16}4,5,4,4,5,3,6,3,2q7[8:1],2,7,7,,,,,
{16}1b/8,,,,1,8,1h[8:1],8h[8:1],,1,8h[8:1],2h[8:1],,8,2h[8:1],6h[8:1],
{16},2,6h[8:1],4h[8:1],,6,2h[8:1],4h[8:1],,2,6h[8:1],4h[8:1],,6,2,4,
{16}35,,35,,4,5,3,4-1[8:1],,2,6x,4-7[8:1],,6,2x,4,
{16}3qq8b[4:2],,,,,,,,,,,,5b,,,,
{16}4v7[8:1],,5,3,4,,2,2,5v2[8:1],3,,6,5,,7,,
{16}1v6[8:1],,,2,1,3,3,,8v3[8:1],,1,7,8,,6,,
{16}4-7[8:1],,5,3,4,,2,2,5-2[8:1],3,,6,5,,7,,
{16}1-6[8:1],,2,2,1,,3,,8-3[8:1],,1,7,8,7,6,5,
{16}2-5[8:1]/4b,,5/7b,,2b/8,,,,8v3[8:1],2,,7,8,,6,,
{16}4v7[8:1],,,3,4,2,2,,5v2[8:1],,4,6,5,,7,,
{16}1-6[8:1],,8,2,1,,3,3,8-3[8:1],2,,7,8,,6,,
{16}4-8-2-5[8:3],4,5,5,4,,6,6,,7,,8,8,,4b,,
{16}1,7,3,3,3,8,2,6,6,6,1,1,1,8,8,8,
{16}2,7,2,2,7-3[8:1],2,2>5[8:1],2,7>2[8:1],,2-7[8:1],,7,,,,
{16}4,,4,4,5,4,4,4,4,4,4,4,4,5,3,4,
{16}3,7,3,3,7,3,3,3,1b>4[8:1],1b,1b,1b,1b,,,,
{16}8b,2,6b,6,6b,1,7,3,3,3,8,8,8,1,1,1,
{16}7,2,7,7,2-6[8:1],7,7<4[8:1],7,2<7[8:1],,7-2[8:1],,2,,,,
{16}5,,5,5,4,4,6,6,2,2,8,8,1>8[4:1],1,1,1,
{16}1b,,,,,,,,5h[4:1],,,,1-5[8:1],5,3,7,
{16}1b,,,,,,,,,,,,,,,,E
