&title=オモイヨシノ
&artist=loos feat. 柊莉杏
&first=0
&des_6=┌(。Д。)┐
&lv_6=14
&des_7=┌(。Д。)┐
&des=┌(。Д。)┐
&inote_6=(168)
{1},
{8}4,5,6,7,8,7,6,5,
{8}3,2,7,8,8,4,3,2,
{8}5^8[4:1],,8^3[4:1],,3^6[4:1],,6qq2[4:3],,
{1}1<3[8:4],
{2}1-4[8:1]/4h[4:1],5-8[8:1]/7h[4:1],
{4}1-4[8:1]/4h[4:1],1,5-8[8:1]/7h[4:1],,
{8}4-1[8:1]/2h[4:1],,4,,75,7h[8:4]/5,,8,
{8}8,8z4[16:4],,,,,,,
{16}73,,6,5,6,,4,,35,,2,4,2,,3,,
{16}47,,6,5,6,,3,,25,,1,4,1,,3,,
{16}47,,6,5,6,,4,,26,,1,5,1,,7,,
{16}25,,3,4,1,,28,,47,,6,5,8-4[8:1],,71,,
{8}3/8b,1-6[8:1]*-7[8:1],,1bV37[16:3],,,,,
{16}15,,7-4[8:1]*-3[8:1],,3,,7bV16[16:3],,,,,,,,,,
{8}3,,5/6-2[8:1],8,,3V14[16:3],5,7,
{8}5s1[8:2],,,,,,27,,
{16}4/5pp6[8:3],,4,,4,,4,,4,,4,,4,,4,6pp5[8:4],
{16}4,,46,,4,,4,,4,,4,,4,,4,,
{16}6/5>7[8:3],,6,,6,,6,,6,,6,,6,,6,5p2[8:3],
{16}6,,65,,6,,6,,6,,6,,6,,6,,
{16}2/5<1[8:3],,2,,2,,2,,2,,2,,2,,2,1qq6[8:4],
{16}2,,21,,2,,2,,2,,2,,2,,3,,
{8}5-1[8:1]/7,,8,6,4-8[8:1],,3,5-1[8:1],
{8},8,,1/5-1[8:1],3/7-3[8:1],,,,
{16}26,,5,4,5,,3,4,2,,5,4,6,,6,,
{16}2h[8:1],,8^3[8:1],1,6h[8:1],,,,7h[8:1],,4-6[8:1],5,2h[8:1],,,,
{16}1,,7,5,7,,6,4,6,,5,3,5,,1,,
{16}1h[8:1],,4-1[8:1],3,6h[8:1],,,,7h[8:1],,5-8[8:1],6,3h[8:1],,,,
{16}2,,3,4,3,,3,4,2,,5,4,6,,6,,
{16}74,,6,5,6,,6,5,7,,4,5,3,,1,,
{8}3v4[8:1]/7v6[8:1],46,,,1^4[8:1]*^6[8:1],28,,,
{8}3v4[8:1]/7v6[8:1],6^1[8:1]/4^1[8:1],,,,37,5w1[8:1],,
{16}5b,,,,37,,2,4,1-5[8:1],,5^7[8:1],,7-3[8:1],,7,,
{8},6,6-8[8:1]*-2[8:1],,6^3[8:1],,1-5[8:1]/6,2,
{16}18,,,,36,,2,4,1-5[8:1],,5^8[8:1],,8-4[8:1],,8,,
{8},6,6,2/4-1[8:1],5-8[8:1]/7,,,,
{16}36,,,,78,,2,4,3-7[8:1],,7^1[8:1],,1-5[8:1],,1,,
{8},6,6^3[8:1]*^1[8:1],,6-2[8:1],,6,,
{16}4b/8b,,6,6,5,,3,3,4,,7,7,5,,2,2,
{1}4qq1[8:4]*pp7[8:4],
{1}3<1[8:7],
{1}4<2[8:7],
{1}5p3[8:5],
{4}1p5[8:2],1qq4[8:5],,,
{1}6>8[8:7],
{1}5>7[8:7],
{1}4q6[8:5],
{4}8>4[8:2],8pp5[8:5],,,
{8}4,4,4,4,4,4,5qq2[8:5],6,
{8}7,7,7,7,7,7,8qq5[8:5],1,
{8}2,2,2,2,2,2,3qq7[8:5],4,
{8}5,5,5,5,5,5,5,5,
{16}8b,6,8,6,8,6,8,6,8,6,8,6,1,7,2,8,
{16}3b,1,3,1,3,1,3,1,4,8,4,8,4,8,4,8,
{16}3b,5,2,6,1,7,8,7,5b,6,4,7,3^6[8:1],8,2,1,
{16}3b,,7bp3[16:2],,,,7b/8b,,,,1,1,1w5[8:1],,,,
{16}1b,,,,2-6[8:1],,3,,2b/6b,,7,7,5,,8,,
{8}2/4,1,2v7[8:1]/4v7[8:1],7,2>5[8:1]/4,,8-4[8:1]/2-8[8:1],6,
{16}2b/8b,,,,6/2-6[8:1],,3,,2b/7b,,8,8,5,,3,,
{16}7/5,,1,,7/5-1[8:1],,3,,5/7,,8,8,8w4[8:1],,26,,
{16}8b,,,,7-3[8:1],,6,,7b/3b,,2,2,4,,1,,
{8}7/5,8,7v2[8:1]/5v2[8:1],2,7<4[8:1]/5,,1-5[8:1]/7-1[8:1],3,
{16}7b/1b,,,,3/7-3[8:1],,6,,2b/7b,,1,1,4,,2,,
{8}7/5,24,86,31,5/8z4[8:1],,,,
{16}2h[8:1],,4,3,5,,5,,2h[8:1],,4,3,5h,,5h,,
{16}1h[8:1],,4,3,6,,6,,2h[8:1],,4,3,6h,,6h,,
{8}2-6[8:1],,4-1[8:1],,8-5[8:1],,6,,
{8}2-4[8:1],4-1[8:1],1-5[8:1],,,,37,,
{16}8h[8:1],,5,6,4,,4,,7h[8:1],,5,6,4h,,4h,,
{16}8h[8:1],,5,6,3,,3,,7h[8:1],,5,6,3h,,3h,,
{16}8h[8:1],,5,5,7,,4,4,6,,3,4,2,4,2,4,
{1}3pp4[8:6]*>6[8:6],
{1},
{1},
{16}2b/7b,,3,4,1-6[8:1],,3/7-3[8:1],,1,,7,,4b,,6,5,
{16}8b-4[8:1],,6/3-8[8:1],,8^3[8:1]*^5[8:1],,3,,,,,,2-5[8:1]/6v1[8:1],,17,,
{8}2b/6b,,4/7^4[8:1],8/2-8[8:1],7-3[8:1],2,7,1,
{24}2b^5[8:1],,,6-2[8:1],7,8,1-6[8:1],,,,,,,,,{16}3,3,4,,15,,
{16}7b/2b,,6,5,8-3[8:1],,6/2-6[8:1],,8,,2,,7b,,3,4,
{16}1b-5[8:1],,3/6-1[8:1],,1^6[8:1]*^4[8:1],,6,,,,,,3-6[8:1]/7-4[8:1],,82,,
{8}3b/7b,,1-7[8:1],3/6^3[8:1],1-5[8:1],6,1,8,
{24}6b^1[8:1],,,2-6[8:1],3,4,5-1[8:1],,,,,,,,,{16}7,7,8,,15,,
{16}3b/7b,,2,4,1^4[12:1],,78,,1b/5b,,6,5,7-3[12:1],,1,,
{16}7b/3b,,2,4,1^4[8:1],,78,,1b^6[8:1]/6b,,,,1-3[8:1]/4-8[8:1],,3,,
{16}1b/4b^1[8:1],,,,7-5[8:1]/4-8[8:1],,6,,4b/7b,,,,1q5[8:1]/5,,2,,
{24}1b/5b,,,6>2[8:1],,,8,,,1,8,7,6b,,,15,26,37,4b-8[8:1]/8b,,,26,,,
{16}4b/8b,,,,17,,2,2,1b,,6,6,5,,8,8,
{16}3b,5,4,5,2b,6,5,6,1b,7,6,7,8b,4,3,4,
{16}2b,6,4b,6,8b,4,2b,4,3b,7,1b,7,5b,1,3b,1,
{16}2b,4,8b,4,2b,6,4b,6,8b,8b,8b,,2-7[8:1]/6-3[8:1],,4/8,,
{1}2bpp1[8:14]/6bpp5[8:14],
{1},
{16},,,,,,,,4b,4b,,,,,,,
E
