&title=oreo
&artist=oreo
&first=2.75
&des=oreo
&lv_5=oreo
&des_5=oreo
&inote_5=
(288){8}4,5,,,4,5,4,5,
,,4,5,4,5,4,5,
,,{4}4,{8}4,5,4,5,
,4,5,4,5,4,5,4,
5,4,,4,5,5,5,5,
5,5,5,5,,5,5,5,
5,5,5,5,5,5,5,5,
5,5,5,5,5,5,5,5,
5,5,5,5,5,5,5,5,
5,5,5,5,5,5,5,5,
{4}5,{8}4,5,4,5,5,5,
5,5,5,5,5,4,5,4,
5,4,,,5,5,5,5,
5,5,4,5,4,,,4,
5,4,{4}5,{2}4,
{8}5,5,5,5,5,4,{4}5,
{8}4,5,{4}4,{16}5,5,5,5,5,5,5,5,
5,5,5,5,5,5,5,5,5,5,5,5,5,5,5,5,
{8}5,5,5,5,{4}5,{8}4,5,
{4}4,{8}4,5,,4,5,4,
,5,5,5,{4}5,{8}4,5,
,4,{4}5,{8}4,5,5,5,
,,4,5,,4,5,5,
5,5,5,5,5,4,{4}5,
{8}4,5,{4}4,{8}5,5,5,5,
5,5,4,5,4,5,,4,
{4}5,{8}4,5,4,,,5,
5,5,5,5,5,5,5,5,
5,5,5,5,5,5,5,5,
5,5,{4}5,{8}4,5,5,5,
5,5,5,5,5,5,5,5,
5,5,5,5,5,5,{4}5,
{8}4,4,4,4,4,4,4,4,
4,4,4,4,4,5,4,4,
4,4,4,4,4,4,5,4,
5,4,4,4,4,4,4,4,
4,5,5,5,5,5,4,5,
5,5,5,5,4,5,4,5,
,4,,4,4,4,4,4,
4,5,{4}4,{8}5,4,,,5,
5,{4}5,4,{8}5,5,
5,4,5,5,5,5,5,5,
4,,,,,5,5,5,
5,5,4,5,4,5,,4,
{4}5,{8}4,5,4,,,5,
5,4,{4}5,{8}4,5,4,5,
5,4,,5,4,,,5,
5,5,5,5,4,5,{4}4,
{8},5,5,4,5,4,,4,
5,4,5,4,5,4,5,4,
5,4,5,4,5,4,5,4,
5,4,5,4,5,4,{4}5b,
E
