&title=The 89's Momentum
&artist=MYUKKE.
&first=0
&des=Mr_HaoZi
&lv_5=13+
&inote_5=(128)
{1},
{8}6h[8:3],8,1,2,{16}3,5,1^4[8:1],,6,,1,,
{8}6h[8:3],1,2,3,{16}4,8,8^3[8:1],,7,,68,,
{8}6h[8:3],8,1,2,3h[8:3],1,8,7,
{32}1,8,7,6,5,4,3,2,1,8,7,6,5,4,3,2,{8}1-4[8:1],5-8[8:1],1,5,
{16}3,3,7,7,1,1,,,7,8,5,4,1,2,,6,
{16}2,,7,5,6,4,5,3,4,2,3x,5x,4,6,5,,
{8}2-5[8:1]/4,1,24,6,5/7-4[8:1],8,57,3,
{16}8,1,7,2,6,3,5,4,6,3,7,2,8b,,,,
{8}2-4[8:1],6-1[8:1],2,6,2-5[8:1],6^8[8:1],2,6,
{16}4,4,4,,{8}7-3[8:1],1-3[8:1],7^5[8:1],1-5[8:1],7,1,
{8}Ch[8:1],,24,1,34,1,24,1,
{16}7,3,7,,{8}B1/B2/E2,B6/B7/E7,B3/B4/E4,E8/B7/B8,E3/B2/B3,Ch[8:1],
{8}2x^4[8:1],6-8[8:1],2,6,1-4[8:1],6^8[8:1],1,6,
{16}3,3,3,,{8}7-2[8:1],3-8[8:1],7-4[8:1],3-6[8:1],7,3,
{16}8b-4[4:3],,,3,3,3,,,6,6,6,,2,2,2,,
{8}1-5[8:1],8-4[8:1],1,8,1-6[8:1],78,1b,,
{16}7,4,6,2,5,1,,,3,8,4,7,5,6,,4,
{16}8,,3,4,2,,6,5,7,,3,8,2,1,3,,
{16}6,1,6,2,6,3,6,4,7,3,2-5[8:1],8,,,2x,
{16},7,1,7,2,7,3,7,4,7,3,7,2,7,1,,,
{16}6b,,6b,,3,4,2,,3,4,1,,3,4,2,,
{16}3b,,3b,,6,5,7,,6,5,8,,6,5,7,,
{1}1xV35p2-6p4[4:7],
{1},
{8}7-3[8:1],7,1-5[8:1],1,6-2[8:1],6,1,1^6[8:1],
{8},1,5,2,1-5[8:1]/8-4[8:1],27,18,,
{8}2-6[8:1],78,1-4[8:1]/2,8,1/7-4[8:1],6,8-3[8:1]/7,1,
{8}6-2[8:1]/8,5,1-4[8:1]/6,8,1/7s3[4:1],,,,
{8}1-5[8:1],1,1,,7-2[8:1],7,7,{16}3^1[8:1]x,3x,
{16},,3,,6,,4,,7,1,7,,6,,,,
{16}2,8,3,7,4,6,5,3,6,2,7,1,8bx,,8b,,
{8}Ch[2:1],6,7,8,,,1V35[8:1],5<3[2:1],
{8}Cf,,,,,7-4[8:1],12,7,
{8},1^4[8:1],78,1,{32}8<2[4:1],7,6,5,,,,,8,7,6,5,,,,,
{8}6-3[8:1],6-1[8:1],6-2[8:1],6,6,8-4[8:1],,8x,
{16}1x,,6,4,7,3,8,,{4}6b,1bpp1[4:1],
{8}1bx<1[2:1]/Cf,,,,,7^5[8:1],7,7,
{16},,1,7,2,6,3,5,2x,8x,3,7,4,6,,,
{16}7x,,8,2,8,3,8,4,7,4,6,4,5h[2:1]b,,1,1,
{32}1,,,,1-5[8:1],2,3,4,{4},8b,1b,
{16}7h[8:1],,2,5,2,6,3,7,2,8,1,7,2h[8:1],,8h[8:1],,
{16}3,7,3,7,2,6,1,7,1,8,2x,,2b,,,,
{16}3h[8:1],,8,8,2,2,7,7,1,1,6,6,4h[8:1],,7h[8:1],,
{16}2,2,8,8,3,3,6,6,4,4,7x,,7b,,,,
{16}4h[8:1],,7,1,7,2,7,3,7,4,6,4,5h[8:1],,4h[8:1],,
{16}6,5,6,7,6,5,6,7,6,5,6x,,6b,,,,
{16}3h[8:1],,7,7,1,1,6,6,3,3,8,8,2h[8:1],,7h[8:1],,
{16}1,1,6,6,4,4,7,7,2,2,8x,,8b,,,,
{1}1p1p5p5p1<1[4:13],
{1},
{1},
{1},
{4}2-5[8:1]/8,7-4[8:1]/2,1-5[8:1]/7,6-4[8:1]/1,
{8}2-4[8:1],8,6-4[8:1],8,2-4[8:1],8,6-4[8:1],8,
{16}2-4[16:1],2,2x,2x,8-6[16:1],8,8x,8x,1-3[16:1],1,1x,1x,7-5[16:1],7,7x,7x,
{1}1p5>1[2:1],
{1}Ch[2:3]/1^7-2-5>1[4:5],
{8},,,,,,E2f/B2/B1,6x,
{8}4/6-3[8:1],5/7-2[8:1],,,4-8[8:1],8-4[8:1],,,
{16}6,5,7,,{8}B3/B4/E4,B1/B8/E1,B2/B3/E3,E6/B5/B6,B1/B2/E2,B4/B5/E5,
{8}34,1,24,1,34,1,24,1,
{8}7-4[8:1],4-7[8:1],7x,1qq5[4:1],2-4[8:1],1x,,,
{16}6,6,2^4[8:1],2h[16:3],5,5,,,1x,1x,5,5,2,2,,6,
{16}6h[8:1],,3,5,3,,6,4,6,4,5,3,4,2,4x,,
{16}1,8,2,7,3,6,4,5,3,6,2,7,1x,,1x,,
{16}4,5,3,6,2,7,,1b-5^7[16:3]b/8b-4^2[16:3]b,,2b/7b,,1b/8b,,,,,
{8}8pp4[4:1],7-5[8:1],8,7-3[8:1],,1-5[8:1]/7,8,1x,
{8}6-3[8:1],6-1[8:1],6,6,2-5[8:1],2-7[8:1],2,2,
{16}6,,7,,8,,8,1,,1,8,,{64}1,8,7,6,5,4,3,2,{8}1,
{32}1b-5^2[4:1],2x,3x,4x,8b-4[8:1],7x,6x,5x,{8}1b,8b,,1b/5b,1b/5b,,
{32}1b,2,3,4,5,6,7,8,1x,,,,5b,,,,8b,7,6,5,4,3,2,1,{4}8/4b,
E
