&title=孤独サイコ
&artist=TAK/初音ミク
&first=0
&des=无敌neta大王
&lv_5=13+
&inote_5=(121)
{1}
,
{32}
E6
,E5,E4,,,,,,E6,E5,E4,,,,,,E6,E5,E4,,,,,,
{4}1b>8<1[16:60],,,,,,,,Cf,4bx,,,,{32}
E6,E5,E4,,,,,,E6,E5,E4,,,,,,E6,E5,E4,,,,,,
{8}
5x,,
{32}1xV37[8:5]/5b,2x,3x,,,,,,
{8}5,,5,,5,,5x/E8,,5x/B8,,5x/B1,,5x/E2,,
{32}1xV72[8:5]/5b,2x,3x,,,,,,
{8}5,,5,,5,,
{8}6xh[8:1],2,{24}3,,3,4,,4,
{8}3xh[8:1],7,5b/4b,,
{24}57,,,B6,,,4xh[24:2],,5,4,,,57,,,B6,,,4xh[24:2],,5,4,,,
{24}47,,,B6,,,3xh[24:2],,4,3,,,47,,,B6,,,3xh[24:2],,4,3,,,
{24}46,,,B5,,,2xh[24:2],,4,3,,,46,,,B5,,,2xh[24:2],,4,3,,,
{4}E8/E6/B6/B7,E1/C/E5,E2/E4/B3/B2,
{16}8xp3[32:7],8x,,,{16}5,,,,
{16}2V41[32:8],2,,,{16}4,,,,
{16}8-5-8[32:9],8,,,{16}5,,,,
{16}1-4-1[32:9],1,,,{16}4,,,,
{16}8<5[4:1],8,,,
{4}5>2[4:1],2<7[4:1],7,2q7p2q7p2b[1:1],A7f,A2f,A7f,A2f,
{24}6h[8:1],,,3,,3,4,,,2,,,3h[8:1]/4,,,6,,6,5,,,7,,,5/7h[8:1],,,3,,3,4,,,2,,,
2h[8:1]/4,,,7,,7,5,,,8,,,
{24}5,,5,6,,6,1,,1,7,,7,3,,3,4,,4,
{16}1x,2x,,7xh[16:5],{4},5h[4:1],1bh[4:1],Cf,
{8}7b-4[8:1],28,3qq5[4:1]/7,2,{24}8,,,6,,6,,,3x/8x,,,,
{8}6<1[8:1],14,3/6>3[8:1],5,{24}2,,,1,,1,,,4,3,,6,
{24}4h[24:5],,,,,8b,
{24},,4,6,,2,{24}4h[24:5],,,,,8b,
{8},2h[8:4],A1/E1,A3/E3,A7/E7,A5/E5,{16}6xh[16:2],,2,4,,,18,,
{8}2b-5[8:1],71,6pp3[4:1]/2,7,{24}5xh[24:5],,,,,,,,,4x,,,
{8}7-4[8:1],18,3p2[4:1]/7,1,{24}6xh[24:5],,,,,,,,3,5,,2,
{24}4h[24:5],,,,,8b,
{24},,4,2,,6,{24}4h[24:5],,,,,8b,
{8},6h[8:4],7xb,5xb,1xb,4xb,{16}2xbh[16:2],,8xb,B1f,,,6x,,
{16}3,5,4,5,3,5,4,5,3,5,4,6,5h[8:1],,6x,,
{16}3,5,4,5,3,5,4,5,3,6,5,7,3,,6x,,
{8}3h[8:2],1,4h[8:2],1,5h[8:2],8,6,47,
{8}6h[8:2]/5,8,5h[8:2],8,4h[8:2],1x,3,6x/2,
{16}2,5,4,5,2,5,4,5,2,5,4,7,5h[8:1],,6x,,
{16}2,5,4,5,2,5,4,5,2,5,8,6,2,{48},{24}8,3,,6,
{24}4h[24:5],,,,,8b,
{24},,4,6,,2,{24}4h[24:5],,,,,8b,
{8},3,2xb-6[8:1],1xb-4[8:1],2xb<7b[8:1],1xb,{16}2xb,,5xb,Cf,,,,,
{24}5h[8:1]
,,,4,,5h[24:3],,,4h[24:3],,,5,,,,4h[24:5],,,,,5,,,5,
{24}4h[8:1],,,5,,4h[24:3],,,5h[24:3],,,4,,,,5h[24:3],,,{16}3x,3x,3x,3x,
{8}5x-7[8:1],5x,B4,,3x/5x-7[8:1],5x,B4,,
{32}
E6,E5,E4,,,,,,E6,E5,E4,,,,,,E6,E5,E4,,{8}1,1w5[32:3],1,
{32}
1xb,B1,C,B6/B5/B4,,,,,
{16}3xh[16:2],,6,3h[128:1],,2h[128:1],4h[128:1],,87,,6,,2h[128:1]/4,,46,,24,,7,5h[128:1],,2h[128:1],4h[128:1],,87,,
{16}5pp5[16:3],,3,,2,2,,,1pp1b[16:3],,7,,6,6,,5,6,3,
{16}4x,5/2xb,,5x,7xb/4,,4x,5/2xb,,5x,7xb/4,,3V57>8V24v1[16:10],,5,,,,,,,,,,7xb,,,,
{16}5,6,,4,3,,7,5,,2,4,,6xbh[8:3],,4,,7,,2,,
{16}6,6,4,5,2,,6,6,3xb,5,1,,6,6,2,4,8,,8,,1<8p5[8:3],8,2h[16:2],,,,,,,,,,
{16}4h[16:2],,,,3h[16:2]/5h[16:2],,,,4h[16:2],,,4,,3,,4,5h[16:2],,,,4h[16:2]/6h[16:2],,,,5h[16:2],,4,5,,{48},
{24}6x,4xh[24:3],,,5xh[24:5],,,,,A2/E3/A3,,,3x,5xh[24:3],,,4xh[24:5],,,,,B5/B6/E7,,,,
{8}1h[2:1],6,3,6,3,{16}5,,E7,C,,,3xh[8:1],,
{4}1<5-3[8:5],4,2,1,
{4}8V64[8:3],1,2,
{24}3,,3x,5x,,4x,6xh[24:5],,,,,1,,,6x,4x,,5x>6b[24:16],3xbh[24:5],,,,,,,,,,,,
{8}E5,C,E1,1xh[8:3],5xh[8:2],,,,
2h[8:1],8b,5b/2,5/8b,1v2[8:1],,6x,,
7h[8:1],1b,4b/7,4/1b,2h[8:1],,{48}8,,,,
{24}4x,6x,,2x,4xh[24:5],,,,,{72}D1f,A1/D2,A2/D3/A3,{24},,
{24}5x,3x,,7x,5xh[24:5],,,,,{72}D1f,A8/D8,A7/D7/A6,{24},,,
{8}2x,63,5,4,3,{16}5h[16:2],,8,8b,,,6,,
{8}2bv5[8:1],71,6pp4[4:1]/2,7,{24}1,,,3,,3,,,2,5x/1x,,,
{8}3>8[8:1],85,6/3<6[8:1],4,{24}7,,,8,,8,,,5,6,,3,
{24}5h[24:5],,,,,8b,
{24},,5,3,,7,{24}5h[24:5],,,,,8b,,,,7,,,
{16}3b,5b,1b,,3b,7b,1b,,1h[16:2],,,6h[16:2],,,4,,
{16}3,5,4,5,3,5,4,5,3,5,4,6,5h[8:1],,6x,,
{16}3,5,4,5,3,5,4,5,3,6,5,7,3,,6x,,
{8}3h[8:2],1,4h[8:2],1,5h[8:2],8,6,47,
{8}6h[8:2]/5,8,5h[8:2],8,4h[8:2],1x,3,5x/2,
{16}2,6,4,6,2,6,4,6,2,6,4,7,5h[8:1],,6x,,
{16}2,6,4,6,2,6,4,6,2,6,8,7,2,{48},{24}7,1,,6,
{24}4h[24:5],,,,,8b,
{24},,4,6,,2,{24}4h[24:5],,,,,8b,
{8},3,2xb-6[8:1],1xb-4[8:1],2xb<7b[8:1],1xb,{16}2xb,,5xb,Cf,,,,,
{24}
2h[8:2],,,,,,5,,,6,,,7h[8:2],,,,,,4,,,3,,,
{8}
72,8,1,2,
{384}3qq4b[4:1],6pp5[4:1],,,,
E
