&title=MVURBD
&artist=ETIA.
&first=0.0428
&des_1=xht350
&des_2=xht350
&des_3=xht350
&des_4=xht350
&des_5=xht350
&lv_5=14+
&des_6=xht350
&des_7=xht350
&des=xht350
&inote_5=(175)
{1},
{4},1<6-2[8:3],,4<7-3[8:3],
{8},,1h[8:1],,1,24,,4-8<5[8:3]/3h[4:1],
{8},,,2,1-5>2[8:3],6,7-3[8:3],
{8},,,{16},1,{8},,15,,8,
{8}17,6,2-4[8:1]/4,,2-8[8:1]/8,,2-6[8:1]/6-2[8:1],,
{4}2/6-4-8[4:1],1-3[8:1],1-5[8:1],1/7-4[8:1],
{4}4/7-5[8:1],1-4[8:1]/7,1-6[8:1]/7,12,
{8}4z8-3[2:1]/5-7-4[2:1],,45,,,,,,
{8}1/6,,7b/8b,7,1/7-4-8[4:1],27,7,3-1[8:1],,
{8}3-5[8:1]/8,8,37,6-4[8:1],7,26,1,
{8}78,,2b/1b,2,8/2-5-1[4:1],72,2,6-8[8:1],,
{8}16,2h[8:1],4h[8:1],3h[8:1],1h[8:1],{16}2,1,2,,
{8}8-4[8:1],{16}3,3,{8}8b-6[8:1],2,1-5[8:1]/8,1,17,7,
{8}7h[8:1],,56,5,5-3[8:1]/7,58,5-2[8:1],1,
{8}58,,1b-3[8:1],7,8-4[8:1]/1,8,82,2,
{8}1qq4[8:7]/7-4[8:1],,7x,,4h[8:1],,5h[8:1],,
{8}6hb[4:1],,{24}57,48,13,{8}2-8[8:1],8-3-7[4:1],,7-4[8:1],,
{8}5,6x-1[8:1],4x/7,5-2[8:1]/6b,,5b/8,6h[4:1],,
{8}8,8,6/8-5[8:1],5-7[8:1],7-1-3[4:1],1x,A7f,,
{8}4,3-8[8:1]/5,2,3b/4-7[8:1],,1/4b,3-6[8:1],,
{8}3,8,5h[8:1]/7,7,4h[8:1]/6,6,3/5h[8:1],3,
{8}2h[8:1]/6h[8:1],,15,15,26,26,37,37,
{8}48,48,{16}1,5,1,5,8,4,8,4,7,3,7,3,
{32}6,7,8,1,2,3,4,5,{8}2x/6x,48,,37,1w5[16:1]/5,,
{8}1b,,{16}3b/7b,,,,7,4,5,2,6,5,7,1,
{16}8,2,1,3,2/8<5[8:1],,2,,28,,3,3,4,2,6-8-4[4:1],,
{8}47,6,{16}5,4,3,2,1b/5b,,2,5,4,7,2,4,
{8}3-8[8:1],3,5-1[8:1],5,2-6-1[4:1],2,8,7,
{16}E6/B6/B5f,,2,,3b/4b,,,,2,5,4,7,3,4,2,8,
{16}1,7,8,6,7/1>4[8:1],,7,,71,,6,6,5,7,3-1-5[4:1],,
{8}52,3,{16}4,5,6,7,8b/4b,,7,4,5,2,7,5,
{8}8-3[8:1],8,2-6[8:1],2,5-3-8[4:1],5,8,2,
{8}B4/B3/E4f,,4b/7b,,{16}6,5,6,2,6,5,6,8,
{16}7,,2>5[8:1],8,2,,28,,8,,6,,78,,4h[8:1]/5h[8:1],,
{16},,36,,2b/5b,,,,3,4,3,7,3,4,3,1,
{16}2,,1/7h[8:1],,5h[8:1],,3h[8:1],,2,,28,,1,1,1,1,
{16}2,8,3,7,4bpp1[2:1]/6b,,,,2,,8,,E7/B6,,C,,
{8},7pp4[2:1],{16}5x,5x,{8}7,5,3,B1/E1,C,
{8}5,6,1qq4[2:1]/7,,3,5,E7/B7,C,
{8},6qq1[2:1],{16}8x,8x,{8}6,8,2,B4/E5,C,
{8}2x/8x,,2bx/8bx-3-1-6[16:5],,4,B4,,2,
{8}3pp8[8:3]/5,6,1,7pp4[8:3],,,E3h[4:1],,
{8},,3x-7-5-2[16:6]/4x,,8,B8,Ch[8:1],A2f,
{8}6h[4:1],,8,24,6,5b/7b-5[8:1]*-3[8:1],,,
{8},,46,6h[8:1],5h[8:1],8h[8:1],6>8[4:1],,
{8}7h[8:1],,7-5-1[4:1],,,8-4-2[4:1],,,
{8}1,1,1<3[4:1]/3,,2h[8:1],,2-8-4[4:1],,
{8}6,,{16}7,,3,1,2v5[8:1],7,5,6,2b,,8,,
{8}8h[8:1],,1b-7[8:1]/7,,2b-6[8:1],,3b-5<7-1[4:1],,
{8}C,2x,3b-5[8:1],{16}2,8,{8}3,7b-1[8:1],{16}6,4,{8}7,
{8}B5/E5/B4,,12,34,56,78,7h[8:1]/8h[8:1],,
{8}7,1,6b-4[8:1],{16}7,1,{8}6,2b-8[8:1],{16}3,5,{8}2,
{8}B5/E5/B4,,45,4,34,3,23,2,
{8}12,1,18,8,78,7,67,6,
{8}56,5,{16}4,8,3,7,2,6,1,5,8,4,1,5,
{16}2,6,3,7,4,6,5,7,8,6,1,5,2,4,2,3,
{16}2,1,2,8,{4}2b<8[2:1]*>8[1:1],,,
{4},3q8[2:1],,7q4[2:1],
{4},1<7-3[4:6]*>7[4:6],,,,,,,
{4},2-5-3[2:1]/5-1-7-3[1:1],,,
{4},2p5[2:1],,6p1[2:1],
{4},8<6-2[4:6]*>6[4:6],,,,,,,
{4},8h[8:3],{8},E6,8,E4,
{8}8,E2h[2:1],8,,7,,B5/B6/E5,,
{8}7,3h[8:3],E8h[4:1],,,3,E1,3,
{8}E7,E4h[4:1],,1-6-8[4:1]*-4-2[4:1],,1,,,
{8}3h[4:1]/7,,E8h[4:1],,,3,E1,3,
{8},{24}7h[4:1]/E4,B4,B5,E6,,,,,,3h[4:1]/E8,B8,B1,E2,,,{8}1x,,
{8}28,37,E5h[4:1],,E8,4x,E2,4h[4:1],
{8},8<4[8:1],4>8[8:1],8,,Ch[4:1],,,
{8}26,,{24}15,26,37,{8}8-6[8:1],6-1-5[4:1],,5-2[8:1],,
{8}3,4x-7[8:1],2x/5,3-8[8:1]/4b,,3b/6,4h[4:1],,
{8}6,6,4/6-3[8:1],3-5[8:1],5-7-1[4:1],7x,A5f,,
{8}2,1-6[8:1]/3,8,1b/2-5[8:1],,7/2b,1-5[8:1],,
{8}4,2,7h[8:1]/1,1,6h[8:1]/8,8,5/7h[8:1],5,
{8}4/6h[8:1],4,46,37,28,17,26,35,
{8}47,56,{16}5,6,5,6,4,7,4,7,3,8,3,8,
{16}2,1,2w6[16:1],1,3x/8x,,2,,,,28,,{24}2x/8x,37,46,5,,,
{24}B5,C,B1,A1f,,,{4}2hb[1:2]/8hb[1:2],,,,,,,
{4},,{16}2,,6,,3,5,3,4,
{16}2,6,1,7,{8}8b-2[8:1],8-5[8:1],8-3[8:1],8,,6,
{8}4z8[8:1]/5s1[8:1],,4b/5b,,{16}27,,1,8,3,,47,7,
{16}5>2[8:1],,5,6,5,,8,8,1,,2-5[8:1]/5,5,3,,2b/5-7[8:1]*-1[8:1],,
{16},,A5f,,,,2,8,2x/8x,,7,1,5,,2,5,
{16}3,,8,4,{8}6<1[8:1],6,5v8[8:1],5,7-4[8:1],7,
{16}1h[8:1],,,,2b/3b,,,,41,,4,3,5,,61,1,
{16}7<4[8:1],,7,8,7,,2,2,5,,4-8[8:1]/6,4,7-4[8:1],7,4b,,
{16}7b,,,,B1/E2/B2,,7,1,7x/1x,,2,8,4,,7,4,
{16}6,,1,5,{8}3>8[8:1],3,4v1[8:1],4,2-5[8:1],2,
{16}1,8,7,6,4b,,,,8-3[8:1],,2,2,8-6>5[8:1],,4-1[8:1],4,
{16}8,,4,,7-3[8:1],,6,1,1-5[8:1],,8,,1b/5,,6b,6,
{16}3b,,4b/5b,,4,5,4,5,2,1,2,1,3,5,1,7,
{16}8,7,8,7,3,4,3,4,3,5,4,6,2,8,1,7,
{32}8,7,6,5,4,3,2,1,{4}8bz4[4:1]*<1[2:1],,,
{8},2,2>5[8:1],5,{16}25,6,7,8,1<6[8:1]/3,,,,
{16}1>4[8:1]/4,,2,,1,,5,6,7,8,4-8[8:1],,4,,7<4[8:1],,
{16}7,,47,3,2,1,6/8>3[8:1],,,,58,,5w1[8:1],,,,
{16}5,,,,2x/7x,1,8-3[8:1],7,6,5,8-4[8:1],,5,,8>3[8:1],,
{16}2,,85,6,7,8,1,2,3v8[8:1]/5v8[8:1],,,,35,,,,
{16}1/7-3[8:1],,35,,5h[8:3]/7,,,,,,2,1,8,7,5-2[8:1]/6,,
{8},5-8[8:1],6,5,4,1h[4:1]/7h[4:1],,,
{24}17,26,35,4,,,{16}3,2,1,8,7,6,58,,36,,7<4[8:1],,
{16},,74,3,2,1,8,7,6-2[8:1]/4-8[8:1],,,,46,,,,
{16}1>4[8:1]/7,,2,,14,5,6,7,8-4[8:1],,2,,8,,1w5[8:1],,
{16},,1,,,,3-7-1-5[8:3]/7-4[8:1],,,,37,,,,,,
{8}8,,1b/2b-4[8:1],8-4[8:1],2,8,1-5[8:1],7-5[8:1],
{8}1,7,4,6,57,8,13,2,
{8}35,46,{16}3,7,4,6,3,7,4,6,{24}5,6,5,6,,,
{24}3,4,3,4,,,2,5,2,5,2,5,1,6,1,6,1,6,8,1,2,3,4,5,
{24}6,7,8,1,2,3,{16}4b/5b,,,,2,5,4,7,3,4,2,8,
{16}1,7,8,6,7/1>4[8:1],,7,,71,,6,6,5,7,3-1-5[4:1],,
{8}52,3,{16}4,5,6,7,84,,7,4,5,2,7,5,
{16}6,,2,,12,,45,,25,,71,,8,8,8,8,
{16}7,1,6,2,5bqq8[2:1]/3b,,,,7,,1,,E3/B3,,C,,
{8},2qq5[2:1],{16}4,4,{8}2,4,6,B8/E1,C,
{8}4,3,8-4-7-5[8:3]/2,,5,3,,{32}A1,D2,,,
{32}A5,D6,,,A3,D4,,,A7,D8,,,{8}1x<5[1:1]*>5[1:1],
E
