&title=Prominence
&artist=KaKi
&first=0.02
&des=0f
&lv_6=13+
&inote_6=(150){1},
{1},
{48}2x-7[8:1]/7x,3x/6x-3[48:5],4x/5x,,,,,,,,,,
{4},1bs5[8:1]/8bz4[8:1],,
{8}3-5[8:1],B8,,,2/6,,3-5[8:1],B8,
{8},,2/6-4[8:1],,1,,3-5[8:1]/7,B8,
{8},,2/6-4[8:1],,1,,7/3-5[8:1],B8,
{8},,2/6,,B8,E3,E7,B4,
{8}6x-4[8:1],B1,,,7/3,,6-4[8:1],B1,
{8},,7/3-1[8:1],,5,,2/6-4[8:1],B1,
{8},,7/3-1[8:1],,4,,2/6-4[8:1],B1,
{8},,7/3,,
{16}2,2h[8:1],,1,1h[8:1],,
{24}2,8,3,
{16}7-3[8:1],,,,7b/4h[4:1],,,,5,4,6h[8:1],,5,,4,,
{16}4,5,3h[8:1],,4,,5,,6,5,7h[8:1],,6,,5,,
{16}3,4,2h[8:1],,3,,4,,6,5,7h[8:1],,8,,6,,
{16}3,4,2h[8:1],,1,,3,,6,5,8,,1/7,,2/6,,
{16}3-1[8:1],4,2,,3,,5,,6-8[8:1],5,7,,6,,4,,
{16}3-1[8:1],4,2,,3/5,,6,,6-8[8:1],5,7,,6/4,,3,,
{16}2-5[8:1],1,3,,2/1,,8,,7-4[8:1],8,6,,7/8,,1,,
{4}2q8[16:5]/6q4[16:5],,,1-4[8:1],
{1}1b<2[1:2],
{1},
{4}E8,E7,E6,E5,E4,E3,E2,E1,
{8}8,8,7,7,6,6,5,5,
{8}4,4,3,3,2,2,1,1,
{16}8,8,7,7,6,6,5,5,4,4,3,3,2,2,1,1,
{4}8bz4[4:1],,,1v6[8:1]/5-3[8:1],
{1}1>8[1:2]/5`Cf,
{1}1h[4:3],
{1}2h[4:3],
{1}3h[4:3],
{1}4>1[2:1],
{1}7<4[2:1],
{1}2<7[2:1],
{8}B6,B5,B4,B3,E7,E6,E4,E3,
{8}7-5[8:1],4h[16:1],7,8h[16:1],4-8[8:1],1h[16:1],4,3h[16:1],
{8}7-5[8:1],4h[16:1],7,8h[16:1],4-8[8:1],1h[16:1],4,3h[16:1],
{8}3-1[8:1],8h[16:1],3,4h[16:1],8-4[8:1],5h[16:1],8,7h[16:1],
{8}3-1[8:1],8h[16:1],3,4h[16:1],8-4[8:1],5h[16:1],8,7h[16:1],
{8}7-5[8:1],5h[16:1],7,1h[16:1],4-8[8:1],8h[16:1],4,3h[16:1],
{8}7-5[8:1],5h[16:1],7,1h[16:1],4-8[8:1],8h[16:1],4,3h[16:1],
{8}3-1[8:1],1h[16:1],3,5h[16:1],8-4[8:1],4h[16:1],8,7h[16:1],
{8}3-1[8:1],1h[16:1],3,5h[16:1],
{12}8,8,8,7,7,7,
{16}1x/6x,,2,,3,4,3,,2/5,,6,,6,5,6,,
{16}7/4,,3,,3,4,2,,1/5,,6,,6,5,7,,
{16}8/4,,3,,3,4,2,,1/5,,2,,6,5,7,,
{16}8/4,,7,,3,4,1,,2h[8:1]/8h[8:1],,,6h[8:1]/5h[8:1],,,7/3,,
{8}1/8,1,2/1,2,3/2,3,4/3,4,
{8}5/4,5,6/5,6,7/6,7,8/7,8,
{16}1,1,2,2,3,3,4,4,5,5,6,6,7,7,8,8,
{4}1b-4[8:1],1bz5[16:5]*v7[16:5],,,
{16}2>5[8:1]/8,,,1,1,,8,,7/1,,6,,2/4,2h[8:1],,,
{16}3>8[8:1]/1,,,4,4,,5,,6/4,,3,,7/8,7h[8:1],,,
{16}5/6<1[8:1],,,4,4,,3,,2/5,,6,,1/3,3h[8:1],,,
{16}7<4[8:1]/4,,,8,8,,1,,2/8,,3,,7/5,7h[8:1],,,
{16}8-3[8:1]/6,,,5,5,,6,,7/4,,3,,1/6,1h[8:1],,4,
{16}4-7[8:1]/2,,,1,1,,2,,3/8,,7,,5/2,2h[8:1],,1,
{16}1-6[8:1]/3,,,4,4,,3,,2/5,,6,,8/3,8h[8:1],,2,
{16}2-6[8:1]/5,,,7,7,,8,,7/5,7/5,,2/8,2/8,,
{24}1,1,1,
{16}1b-5[8:1],,,8,8/1,,7,,6/1,,2,,8/3,8/3,,1/7,
{16}7-3[8:1]/1,,,8,7/8,,1,,2/6,,7,,1/2,1/2,,3/8,
{16}8-4[8:1]/3,,,1,1/8,,2,,3/8,,7,,1/5,1/5,,2/8,
{16}2-6[8:1]/8,,,1,2/1,,8,,7/3,,2,,7/8,7/8,,1/6,
{8}1x/6x,1,2,2,3,3,4,4,
{8}5x/4x,5,6,6,7,7,8,8,
{16}1,1,2,2,3,3,4,4,5,5,6,6,7,7,8,8,
{32}1,2,3,4,5,6,7,8,1,2,3,4,5,6,7,8,1,2,3,4,5,6,7,8,1,2,3,4,5,6,7,8,
{4}1b-3[8:1]/5b,4-1[8:1],1-4[8:1],4-8[8:1],
{4}1-5[8:1],4-7[8:1],1-6[8:1]*-4[8:1],1,
{4}6-8[8:1],1-6[8:1],5-1[8:1],2-5[8:1],
{8}4-2[8:1],,1-5[8:1]*-6[8:1],,1,,7/8,7/8,
{8}1,1,2,2,3,3,4,4,
{8}5,5,6,6,7,7,8,8,
{16}1,1,2,2,3,3,4,4,5,5,6,6,7,7,8,8,
{4}1>4[4:1],4<7[4:1],7>2[4:1],2q4[4:6],
{1}6q8[4:5],
{1},
E
