&title=Echoes of Memoria
&artist=Ludicin
&first=0
&des=「将来」は奈落の淵へと堕ち、最後の光すら闇に呑まれ、万物は漆黒の闇蝕に覆われた。
&lv_6=15+
&inote_6=(95){1},,
{64}1pp6[8:13],2/8,3/7,4/6,5pp2b[16:25],,,,
{8},,,,,,,,,,,,,,,
3h[8:15]/5<8[2:1],,,,,,,,
1<6[2:1],,,,,,,,
{16}4h[4:1]/6h[8:3],,,,,,,,
3h[4:1]/5h[4:1],,,,,,,,
7V51[16:3]/4h[8:1],,,,3,,3,,3V15[16:3],,,,7h[8:1],,,,
6h[8:1]/2h[4:1],,,,6,,7,,8h[4:1]/4h[4:1],,,,,,,,
2>5[16:3]/5h[8:1],,,,6,,6,,6^1[16:3],,,,2h[8:1],,,,
{16}7h[4:3]/3b,,,,3,,2,,1h[4:1],,,,,,,,
3V52[16:3]/8h[8:1],,,,7,,7,,7<4[8:1],,,,3h[8:1],,,,
2h[4:3]/6,,,,7,,7,,8h[4:1],,,,,,,,
1^4[8:1],,5,,6,,7,,8<5[8:1],,3,,2,,1,,
{4}8b<1b[2:3],,,,{32}7,7,7,7,7,,,,{4},,
{32}8,7,6,5,4,3,2,1,
(190){8}8h[8:1],,8h[8:1],,2h[8:1]/7h[8:1],,2h[8:1]/7h[8:1],,
6h[8:1]/4h[8:1],,6h[8:1]/4h[8:1],,7h[8:1]/1h[8:1],,7h[8:1]/1h[8:1],,
3h[8:1]/8h[8:1],,2h[8:1]/7h[8:1],,1h[8:1]/6h[8:1],,5h[8:1]/8h[8:1],,
4h[8:1]/7h[8:1],,3h[8:1]/6h[8:1],,2h[8:1]/5h[8:1],,1h[8:1]/4h[8:1],,
{16}8h[8:1],,3,4,2h[8:1],,6,5,7h[8:1],,3,4,2h[8:1],,7,8,6h[8:1],,3,4,2h[8:1],,6,5,7h[8:1],,2,1,3h[8:1],,5,5,3h[8:1],,6,,5h[8:1],,2,,3h[8:1],,7,,6h[8:1],,4,,3h[8:1],,5,,6h[8:1],,4,,{32}8,7,6h[16:1],,2,3,4h[16:1],,{12}8,8,8,
{16}7q4[8:1]/1p4[8:1],,,,,,,,1/7h[8:1],,2,,3/6h[8:1],,4,,
8/3h[8:1],,7,,6/2h[8:1],,5,,4/6h[8:1],,3,,2/5h[8:1],,1,,
7/3h[8:1],,6,,5/2h[8:1],,4,,1/7h[8:1],,2,,3/6h[8:1],,4,,
5/3h[8:1],,6,,7/2h[8:1],,8,,1/7h[8:1],,2,,3/8h[8:1],,4,,
3/7h[8:1],,3,,2/6h[8:1],,2,,5/1h[8:1],,6,,7/2h[8:1],,8,,
1/7h[8:1],,2,,3/6h[8:1],,4,,5/3h[8:1],,6,,7/4h[8:1],,8,,
3/7h[8:1],,3,,4/8h[8:1],,4,,6/2h[8:1],,6,,5/1h[8:1],,5,,
{32}2b,3,4,,,,7b,6,5,,,,1b,2,3,,{16}7,1,4,3,8,2,6,5,
{16}8,,7,,6/1,,2,,3/7,,6,,5/2,,3,,
4qq1b[4:1],,,,,,,,7,8,7,8,6,1,6,1,
{16}5,,6,,5/3,,7,,1/8,,2,,3/5,,6,,
7qq4b[4:1],,,,,,,,1,2,3,4,8,7,6,5,
3,,4,,2/7,,6,,7/1,,2,,3/7,,8,,1-4[8:1],,6-1[8:1],,,,,,5,4,3,2,1/5,6,7,8,1/4,,3,,2/7,,6,,5/3,,2,,1/8,,7,,7^4b[8:1],,8,1,7,,3,3,{32}7,8,1,2h[32:9],,,,,{16}4,4,4,4,
{16}7,,6,,5/2>5[8:1],,3,,2/7-4[8:1],,6,,7/3,,2,,
1-5[8:1]/6,,2/5-1b[8:1],,,,,,7,6,5,4,8,7,6,5,
4/1,,2,,3/6v1[8:1],,7,,6/2>5[8:1],,3,,2/7,,,,
4/7-3b[8:1],,3-7[8:1]/8,,,,,,2,3,4,5,1,2,3,4,
5/2v5[8:1],,3,,2/8-4[8:1],,7,,8/2>5[8:1],,3,,2/7,,6,,
7/1-5[8:1],,3/5-1b[8:1],,,,,,8,7,6,5,1,8,7,6,
5/8,,4,,3>8[8:1]/7,,2,,7v4[8:1]/3,,6,,2>5[8:1]/7,,1,,
2/6,,7,,8,,1,,{32}1-5[8:1]/5-1b[8:1],8x/4x,7x/3x,6x/2x,,,,,,,,,,,,,
{16}2>5b[8:1]/8,,2/8h[8:1],,,,{16}7,7,7,,4/6-8-2[8:1],,,,4,4,
4h[16:1],,3h[16:1]/7h[16:1],,1h[16:1]/8h[16:1],,4h[16:1]/6h[16:1],,7<4[8:1],1,,1,7,,2,,
2-5-3b[6:1]/7,,1/5,,,,,,7h[8:1],,2,2,8h[8:1],,3,3,
7h[16:1]/4h[16:1],,5h[16:1]/2h[16:1],,8h[16:1]/1h[16:1],,5h[16:1]/3^6[8:1],,8v3[8:1],,3,,8,,,,
1,8,2,5,4,6,3,3,7<4[8:1],2,8,1,7,,2,2,
2v5[8:1],,7,7,2<8b[8:1],,6,6,2>5[8:1],,7,7,2,,6,6,
8-4[8:1],2,4-8[8:1],3,8,,,,1,2,3/5,4/6,5-1[8:1]/7<4[8:1],,,,,,,,5,4/6,3/7,2/8,1w5b[8:1],,,,,,,,
{16}7<4b[8:1]/1,,7/1h[8:1],,,,{16}2,2,2,,5/3-1-7[8:1],,,,5,5,5h[16:1],,6h[16:1]/2h[16:1],,8h[16:1]/1h[16:1],,5h[16:1]/3h[16:1],,2>5[8:1],8,,8,2,,7,,7-4-6b[6:1]/2,,8/4,,,,,,2h[8:1],,7,7,1h[8:1],,6,6,2h[16:1]/5h[16:1],,4h[16:1]/7h[16:1],,1h[16:1]/8h[16:1],,4h[16:1]/6>3[8:1],,1v6[8:1],,6,,1,,,,8,1,7,4,5,3,6,6,2^5[8:1],7,1,8,2,,6,6,6^5-3[8:1],,2,2,6v1b[8:1],,1,1,6<8[8:1],,3,3,6,,1,1,4,5,6,7,3,4,5,6,2,3,4,5,6/2,3/7,4/8,5/1,2-7-5[2:1]/6-3-1b[2:1],,,,,,,,,,,,,,,,
{16}8h[8:1]/4h[8:1],,,6,5/7,,3,2/4,,7,8/6,,2,3/1,1/3,,4h[8:1]/8h[8:1],,,2,1/3,,7,6/8,,3,2/4,,6,5/7,,,8h[8:1]/2h[8:1],,,3,3/4,,6,5/6,,3,3/4,,6,5/6,5/6,,4h[8:1]/7h[8:1],,,5/6,5/7,,3/4,2/4,,5/6,5/7,,3/4,2/4,,,
{16}7/8^3b[2:1],,,,6,,,,6,,,,6,,,,
(180){16}5^8[2:1]/4,,,,3,,,,3,,,,3,,,,
(175){16}2/8,,2^5[8:1],1,,1,2,,8,,7^4b[8:1],4,,4,7,,1bw5[16:11],,,,,,,,1w5b[8:1],,,,,,,,
(87.5){32}2>5[16:1]/7,,,1h[16:1],7,7,7,7,2,,8,8,,3,3,,4/6v1[16:1],,,7h[16:1],4,4,4,4,6,,2,,{64}2,3,4,,8,7,6,,{32}1>4[16:1]/5h[4:1],,,1,1,1,1,1,1,,7,6,,3,4,,1/7,,,,8-4[16:1]/3,3,3,3,8,8,8,8,,,,,2>5b[16:1]/6h[8:1],,,,,,,,6,,7,7,,8,8,,7<4b[16:1]/3h[8:1],,,,,,,,3,,2,2,,1,1,,2/8,,6,5/7,,3,2/4,,7/1,,3,4/2,,6,7/5,,8h[8:1]/4,4,4,4,,,,,{24}7/4,7/4,6/3,5/2,5/2,6/3,
{32}4>1[16:1]/7h[8:1],,,,{64}6,5h[16:1],,,{32},,4,,7,7,,4/6,4/6,,2>4[16:1]/5,2/5,,,8,8,8,8,2/8h[16:1],,,,{48}8,7,6,2,3,4,{32}5>2[16:1]/7h[8:1],,,,4,4,4,4,,,6,6,,1/7,1/7,,{24}2>5[16:1]/8-4[16:1],3/7,3/7,3/7,,,,,,{32}7,7,7,7,6<1b[8:1]/2h[8:1],,,,,,,2,2,,3,3,,4,4,,3>8b[8:1]/7h[8:1],,,,,,,7,7,,6,6,,5,5,,6/4,,2,1/3,,7,6/8,,3/5,,7,8/6,,2,3/1,,4h[8:1]/8,8,8,8,,,,,{24}2>5[16:1]/8,2/8,2/8,1/7,1/7,1/7,
(180){16}2/8,,6,4x,7v4[8:1],3,8,2,7,,3,3,7<4[8:1],7,2,2,,,2,2,7p3[8:1],1,7,1,,,2,5,3xv8[8:1],6,4,7,,,6,6,3-1[8:1],3,5,5,,,7,7,3q7[8:1],5,2,6,,,8,8,3v8[8:1],8,3,7,3^6[8:1],,6,6,7v4[8:1],,,,,,1,1,7<4[8:1],7,2,2,,,1,1,7p3[8:1],2,8,1,,,3x,3x,7v4[8:1],4,6,3,,,2,7,1^4[8:1],8,2,,,,6,6,1q5[8:1],1,7,7,,,8,8,1v6[8:1],7,2,5,1-3-5[8:1]*-4[8:1],,,,,,,,7,7,8,6,3v8[8:1],4,2,5,
{16},,,,7<4[8:1],1,5,3,7,,,,3,6,2,7,8<5[8:1]/3,3,3,3,,,,,2v5[8:1]/7,7,7,7,,,,,6,6,4,7,2>5[8:1],8,4,6,2,,,,6,3,8,2,1^4[8:1]/7,7,7,7,,,,,6,6,,3/7v4[8:1],3/7,,,,,,2,2,7<4[8:1],7,3,3,,,3,3,7p3[8:1],2,8,1,,,2,2,7v4[8:1],1,8,2,,,1,5,2v5[8:1],6,3,,,,7,7,2>5[8:1],2,6,6,,,6,6,2q6[8:1],7,1,8,,,7,7,2v5[8:1],8,1,7,,,8,8,1,7,2,6,
{16}3/5,,2,8,3v8[8:1],7,4,6,3,,7,7,3>8[8:1],3,6,6,,,6,6,3p7[8:1],5,3,5,,,6,1,7xv4[8:1],2,8,3,,,2,2,7-5[8:1],7,1,1,,,3,3,7q3[8:1],1,6,2,,,4,4,7v4[8:1],4,7,3,7>2[8:1],,2,2,3v8[8:1],,,,,,5,5,3>8[8:1],3,6,6,,,5,5,3p7[8:1],6,4,5,,,7x,7x,3v8[8:1],8,2,7,,,6,3,5<8[8:1],4,6,,,,2,2,5q1[8:1],5,3,3,,,4,4,5v2[8:1],3,6,1,5-7-1[8:1]*-8[8:1],,,,,,,,3,3,4,2,7v4[8:1],8,6,1,
{16},,,,3>8[8:1],5,1,7,3,,,,7,4,6,3,2>5[8:1]/7,7,7,7,,,,,6v1[8:1]/3,3,3,3,,,,,2,2,8,3,6<1[8:1],4,8,2,6,,,,2,5,4,6,7v4[8:1]/3,3,3,3,,,,,2,2,,,7/3v8[8:1],7/3,,,,,5,5,3^8[8:1],3,6,6,,,7,7,3p7[8:1],6,4,5,,,6,6,3v8[8:1],5,4,6,,,5,1,6v1[8:1],2,7,3,,,3,3,6<1[8:1],6,2,2,,,2,2,6q2[8:1],3,5,4,,,3,3,6v1[8:1],4,5,3,,,2,2,5,5,4,4,
{16}8b-6-4-2-8b[2:15],,,,,,,,,,,,,,,,,,,,,,,,,,,,2,2,2,2,,,,,,,,,,,,,,,,,,,,,,,,,,,,,,,,,C,,,,,,,,,,,,,,,,,,,,,,,,,,,,,,,,,,,,,,,,,,,,,,,,,,,,,,,,,,,,,,,,
{32}1/8qq3[1:3],2/7,3/6,4/5,,,,,{16},,,,,,,,,,,,4h[4:3],,,,,,,,,,,,,,,,2h[4:3],,,,,,,,,,,,,,,,6h[4:3],,,,,,,,,,,,,,,,7h[4:3]/3pp8[1:3],,,,,,,,,,,,,,,,6h[4:1],,,,,,,,7h[4:1],,,,,,,,2h[2:1],,,,,,,,,,,,1,,,,3h[4:3],,,,,,,,,,,,,,,,1h[4:3]/7qq5[2:3],,,,,,,,,,,,,,,,2h[4:3],,,,,,,,,,,,,,3,,4h[4:3]/6v1[1:1],,,,,,,,,,,,,,,,3,4h[16:3],,,,,,,8h[8:1],,,7h[8:1],,,6,,5h[4:1]/3>8[1:1],,,,,,,,7h[2:1],,,,,,,,,,,,,,,,5,,,5,,,4/6,,7h[4:1]/3h[4:1],,,,,,,,4h[8:1],,,4h[8:1],,,5h[16:1]/3h[16:1],,2h[4:1]/6h[8:1],,,,7h[8:1],,,,8h[4:1]/3h[4:1],,,,,,,,8<5[2:1]/5,,,,4,,,,3,,,,2,,,,2>5[2:1]/5,,,,6,,,,7,,,,8,,,,7<4b[2:1]/4,,,,3,,,,2,,,,1,,,,1>4[2:1]b/4,,,,5,,,,6,,,,7,,,,
5<8[2:1]/8,,,,1,,,,2,,,,3,,,,3>8[2:1]/8,,,,7,,,,6,,,,5,,,,6<1b[2:1]/1,,,,2,,,,3,,,,4,,,,4>1[2:1]b/1,,,,8,,,,7v4[16:1],,,,,,,,
{16}7<4[8:1]/2,,,1,7,,2,,3v8[8:1]/6,,,,5,,6,,7<4b[8:1]/2,,,1,7,,2,,3/6v1b[8:1],,,,4,,3,,2>5[8:1]/7,,,8,2,,7,,6v1[8:1]/3,,,,4,,3,,2>5b[8:1]/7,,,8,2,,7,,3v8b[8:1]/6,,,,,,,,7,,3,4/2,,6,7/5,,8/2,,6,5/7,,3,2/4,,7/5,,3,4/2,,6,7/5,,8/4,,2,1/3,,7,6/8,,4,7,4,7,3,6,3,6,2,5,2,5,1,4,1,4,
{32}1,2,3,4,5,6,7,8,1,2,3,4,5,6,7,8,1hx[32:1],2hx[32:1],3hx[32:1],4hx[32:1],5hx[32:1],6hx[32:1],7hx[32:1],8hx[32:1],1bhx[32:1],2bhx[32:1],3bhx[32:1],4bhx[32:1],5bhx[32:1],6bhx[32:1],7bhx[32:1],8bhx[32:1],
(190){1}1b>8b[1:3],,
(200),,
(210){16}2/5,,,,7/8,,,,1/3,,,,5/6,,,,1/8,,,,3/5,,,,6/7,,,,1/3,,,,5/7,,5/7,,4/6,,4/6,,3/5,,3/5,,2/4,,2/4,,1-5[8:1],,,,7,,8,,1w5b[8:1],,,,,,,,
{16}2>5[8:1]/7,,,8,2,,1,,6,5,7,3,4,2,7,1,7<4[8:1],,,2,7,,3,3,{32}7,8,1,2,{16},,5,4,6,3,7<4[8:1],,,1,7,,8,,3,4,2,6,5,7,2,8,2>5[8:1],,,8,2<8b[8:1],,7,,2v5[8:1],,6,6,2,,7,7,2h[8:1]/8h[8:1],,,1h[8:1]/7h[8:1],,,4/5,,3h[8:1]/8h[8:1],,,1h[8:1]/6h[8:1],,,5/4,,7h,8,6,2h,1,3,5,4,7,6,5,4,1,2,3,4,7v4[8:1],,,1,7,,2,,6,5,7,2,1,3,7,8,7<5b[8:1],,4,4,7-1b[8:1],,2,2,7v4b[8:1],,3,3,,,2,2,
{16}7<4[8:1],,,1,7,,8,,3,4,2,6,5,7,2,8,2^5[8:1],,,7,2,,6,6,{32}2,1,8,7,{16},,4,5,3,6,2^5[8:1],,,8,2,,1,,6,5,7,3,4,2,7,1,7^4[8:1],,,1,7^1b[8:1],,2,,7v4[8:1],,3,3,7,,2,2,3h[8:1]/5h[8:1],,,4h[8:1]/7h[8:1],,,3h[16:1]/5h[16:1],,1h[8:1]/8h[8:1],,,,4,6,3,5,2h[8:1],,,1h[8:1]/7h[8:1],,,4h[16:1]/5h[16:1],,1-5b[8:1],,7^4[8:1],,1,,7,,3,,3,,4/6,,4/6,,3,5,3,5,2,6,2,6,{32}1b,2,3,4,,,7b,6,5,4,,,2b,3,4,5,,,8b,7,6,5,,,{16}3,7,2,8,
{16}1-3[8:1],,7v4[8:1],,1,,7,,2,6,5,7,2,1,3,6,2^5[8:1],,7,,2,,7v4[8:1],,2,,7,,3,5,2,6,1^6[8:1],,5v2[8:1],,1,,5,,8,5,1,5,3,6,4,6,5-1[8:1],,7^4[8:1],,5,,7-3[8:1],,2-5[8:1],,7,,2,,6,,6h[8:1]/1h[8:1],,,8h[8:1]/3h[8:1],,,4/6,,2h[8:1]/5h[8:1],,,4h[8:1]/7h[8:1],,,8/1,,7,8,6,2,1,3,6,5,7,6,5,4,1,2,3,4,6v1[8:1],,,4,6,,3,,7,6,8,3,4,2,6,5,6^8b[8:1],,1,1,6-4b[8:1],,3,3,6v1b[8:1],,2,2,,,3,3,
{16}7^4[8:1],,,1,7,,8,,3,4,2,5,1,6,8,7,2^5[8:1],,,7,2,,6,6,{32}2,1,8,7,{16},,4,5,3,6,2^5[8:1],,,8,2,,1,,1,2,8,3,7,4,6,5,,7^4[8:1],,,1,7^1b[8:1],,2,,7v4[8:1],,3,3,7,,2,2,3h[8:1]/5h[8:1],,,4h[8:1]/7h[8:1],,,3h[16:1]/5h[16:1],,1h[8:1]/8h[8:1],,,,4,6,3,5,2h[8:1],,,1h[8:1]/7h[8:1],,,4h[16:1]/5h[16:1],,1-5b[8:1],,7^4[8:1],,1,,7,,3,,3,,4/6,,4/6,,3,5,3,5,2,6,2,6,{32}1b,2,3,4,,,7b,6,5,4,,,2b,3,4,5,,,8b,7,6,5,,,{16}3,7,2,8,
{16}1-3[8:1],,1,,7<4[8:1],,7,,7^1[8:1],,3,3,7,,2,2,3^8[8:1],,7v4[8:1],,3,,7V51[8:1],,2-5[8:1],,7,,2,,,,2,1,3,7,8,6,3,4,2,6,5,7,2,8,1,7,2w6[8:1],,,,2,,,,7^8q5b[8:1]/3^2p5b[8:1],,,,,,,,4hx[8:1]/3hx[8:1],,,7h[8:1]/5h[8:1],,,8/1,,5h[8:1]/6h[8:1],,,2h[8:1]/4h[8:1],,,1/8,,3,4,2,6,5,7,1,8,2,7,1,8,1,1,1,1,8/2v5[8:1],,,5,2,,6,,3,4,2,6,5,7,3,4,3^1b[8:1],,8,8,3-5b[8:1],,6,6,3v8b[8:1],,7,7,,,6,6,
{16}7^4[8:1],,,1,7,,8,,3,5,1,6,4,8,2,7,2^5[8:1],,,7,2,,6,6,{32}2,1,8,7,{16},,4,5,3,6,2^5[8:1],,,8,2,,1,,6,4,8,3,5,1,7,2,7^4[8:1],,,1,7^1b[8:1],,2,,7v4[8:1],,3,3,7,,2,2,3h[8:1]/5h[8:1],,,4h[8:1]/7h[8:1],,,3h[16:1]/5h[16:1],,1h[8:1]/8h[8:1],,,,4,8,2,6,3h[8:1],,,1h[8:1]/7h[8:1],,,4h[16:1]/5h[16:1],,1-5b[8:1],,7^4[8:1],,1,,7,,3,,3,,4/6,,4/6,,3,5,3,5,2,6,2,6,{32}1b,2,3,4,,,7b,6,5,4,,,2b,3,4,5,,,8b,7,6,5,,,{16}7,1,7,1,
{16}8p4[8:1],,2v5[8:1],,8,,2,,6,3,4,2,7,8,6,3,7^4[8:1],,2,,7,,2v5[8:1],,7,,2,,6,4,7,3,8^3[8:1],,4v7[8:1],,8,,4,,1,4,8,4,6,3,5,3,4-8[8:1],,2^5[8:1],,4,,2-6[8:1],,7-4[8:1],,2,,7,,2,,2h[8:1]/8h[8:1],,,1h[8:1]/6h[8:1],,,5/4,,6h[8:1]/1h[8:1],,,8h[8:1]/3h[8:1],,,4/5,,2,1,3,7,8,6,3,4,2,3,4,5,8,7,6,5,3v8[8:1],,,5,3,,6,,3,4,2,6,5,7,3,4,3^1b[8:1],,8,8,3-5b[8:1],,6,6,3v8b[8:1],,7,7,,,6,6,
{16}3^8[8:1],,,5,3,,4,,7,1,5,2,8,4,6,3,6h[8:1],,,1,5^2[8:1],,4,,{32}6,7,8,1,{16},,8,1,7,2,6^1[8:1],,,4,6,,5,,2,8,4,7,1,5,3,6,3^8[8:1],,,5,3^5b[8:1],,6,,3v8[8:1],,7,7,3,,6,6,3h[8:1]/5h[8:1],,,4h[8:1]/7h[8:1],,,3h[16:1]/5h[16:1],,1h[8:1]/8h[8:1],,,,4,8,2,6,3h[8:1],,,1h[8:1]/7h[8:1],,,4h[16:1]/5h[16:1],,1-5b[8:1],,7^4[8:1],,1,,7,,3,,3,,4/6,,4/6,,2,8,4,5,1,7,4,5,{32}1b,2,3,4,,,7b,6,5,4,,,2b,3,4,5,,,8b,7,6,5,,,{16}6,1,7,2,
(210){16}8bh[8:3]/3bh[2:1],,,,,,,,,,,,6b,,2bh/8bh,,1/7,,3,2/4,,6,5/7,,1,2/8,,,1,7,4,5,2-5-3v4-2[2:1]/6bh[4:3],,,,,,,,,,,,,,,,7b-4-6v5-7b[2:1]/1bh[4:3],,,,,,,,,,,,,,,,
(220){16}4bh[8:3]/7bh[2:1],,,,,,,,,,,,2b,,6bh/4bh,,5/3,,7,6/8,,2,1/3,,5,6/4,,,5,3,8,1,6-1-7v8-6[2:1]/2bh[4:3],,,,,,,,,,,,,,,,3b-8-2v1-3b[2:1]/5bh[4:3],,,,,,,,,,,,,,,,
(230)7-4-6v5-7[2:1]/1,,,,1,,,,1,,,,1,,,,3b-8-2v1-3b[2:1]/6,,,,6,,,,6,,,,6,,,,2-5-3v4-2[2:1]/8,,,,8,,,,8,,,,8,,7,,6b-1-7v8-6b[2:1]/3,,,,3,,,,3v6[8:1],,,,,,,,7,4,7,4,6,3,6,3,5,2,5,2,6,3,6,3,6,5,7,3,4,2,7,8,6,2,1,3,5,4,6,3,{12}7,7,5,2,2,4,6,6,8,3,3,1,2,2,2,7,7,7,2bxw6b[8:1],,,,,,
{16}3,4,2,6,5,7,2,1,3,7,8,6,4,5,3,6,1,7,1,7,3,5,3,5,4,7,4,7,2,6,2,6,{12}3,6h,8,4h,2,7h,{16}1,2,3,4,5h[8:1]/8,8,8,8,1,2,3,4,5/8,7,6,5,4/1,2,3,4,5h[8:1]/7,7,7,7,1,7,3,4,1,7,3,5,2,8,4,6,2,8,5,6,{12}2,2,4,7,7,5,3,3,1,6,6,8,{16}3,4,3,4,2,5,2,5,4,7,4,7,5,6,5,6,{12}2h[12:1],8,4,7h[12:1],1,5,2h[12:1],8,4,7h[12:1],,,{16}6,5,7,5,6,4,8,4,5,3,1,3,5,3,8,3,7,2,7,2,6,4,6,4,5,2,5,2,7,3,7,3,8,7,6,5,4/1,2,3,4,5/8,7,6,5,4h[8:1]/2,2,2,2,{12}8,2h,5,4h,7,1h,{16}5,2,5,2,6,3,6,3,{12}8,4,7,1,5,2,7,5,6,2,4,3,{16}8,8,8,8,3,3,3,3,6,6,6,6,1,2,3,4,7,5,7,5,6,4,6,4,5,3,5,3,6,2,6,2,{32}6b,5,4,,,,2b,3,4,,,,8b,7,6,,,,2b,3,4,,,,7b,8/6,1/5,2/4,3,,,,
{16}7^1[8:1],,2,2,7^6-4[8:1],,4,4,7v2[8:1],,3,3,7,,,,1,6,5,6,2,6,5,6,3,6,5,6,{32}1,2,3,,7,6,5,,{16}2,1,3,6,5,7,3,4,2,7,8,6,2,1,3,8,2^5[8:1],,6,6,2^1-7[8:1],,6,6,2v5[8:1],,6,6,2,,,,2,1,2,1,3,4,3,4,5,6,5,6,8,7,8,7,{12}1h[12:1],3,3,8h[12:1],6,6,4h[12:1],2,2,5h[12:1],7,7,{16}6,5,8,2,1,4,6,5,7,3,4,2,8,1,7,2,8^6[8:1],,5,5,8^2[8:1],,4,4,8v5[8:1],,3,3,8,,,,{16}1,7,3,5,2,8,4,6,1,8,3,5,1,8,4,6,2,2,2,,3,3,3,,6,6,6,,5,5,5,,1,7,3,5,2,8,4,6,1,8,3,5,1,8,4,6,3,4,2,6,5,7,2,1,3,7,8,6,4,5,3,6,2,7,2,7,1,6,1,6,3^8[8:1],5,3,5,3,,,,7,1,7,1,8,2,8,2,1-5[8:1],3,1,3,,,,,3,4,2,6,5,8,2,1,4,7,8,6,4,5,2,8,{32}2b,3,4,,,,1b,2,3,,,,1b,8,7,6,2b,3,4,5,6,7,8,1,2b/7b,6,5,4,3,2,1,8,{4}5bx-3-6-1[1:3]/7bxs3[1:3],,,,,,,,,,,,,,,,{32},,,1pp6[1:4],2/8,3/7,4/6,5pp2b[1:4],{4},,,,,,,,,,,,,,,,,,8b^7b[1:8]`4^3[1:8],,
