&title=驟雨の狭間
&artist=Silentroom
&first=0
&des=Grain.
&des_5=Grain.
&lv_5=14+
&inote_5=(174){4},,,,{1}5xh[4:1]`4x,
4xh[4:1]`5x,
5xh[4:1]`4xh[4:1],
{4}5xh[4:1],4x,,,4xh[4:1],
5x,,,5xh[4:1],
4x,,,4xh[4:1],
5x,,,5xh[4:1],
4x,,,4xh[4:1],
5x,,,5xh[4:1],
4x,,,3xh[4:1],
4x,,,6xh[4:1],
5x,,,2xh[4:1],
4x,,,7xh[4:1],
5x>7[2:5],,,{1}6xh[4:1],
4xh[4:1],
{4}2xh[4:1],{16}8,7,6,5,{24}4,3,2,1,8,7,{32}6-2[8:1],5,4,3,2,1,8,7,
{4}6/2,{16}3,4,5,6,{24}7,8,1,2,3,4,{32}5-1[8:1],6,7,8,1,2,3,4,
{4}5/8,{16}7,6,5,4,{24}3,2,1,8,7,6,{32}5-1[8:1],4,3,2,1,8,7,6,
{4}5/2,{16}3,4,5,6,{24}7,8,1,2,3,4,{32}5-1[8:1],6,7,8,1,2,3,4,
{4}5/7,{16}6,5,4,3,{24}2,1,8,7,6,5,{32}4-8[8:1],3,2,1,8,7,6,5,
{4}4/2,{16}3,4,5,6,{24}7,8,1,2,3,4,{32}5p1[8:1],6,7,8,1,2,3,4,
{4}5/8,{16}7,6,5,4,{24}3,2,1,8,7,6,{32}5q1[8:1],4,3,2,1,8,7,6,
{4}5/2,{16}3,4,5,6,{24}7,8,1,2,3,4,{32}5s1[8:1]*v7[8:1],6,7,8,1,2,3,4,
{4}5,{8}2xh[8:1],{16}4,3,{4}5h[4:1],{8}4,{16}3,6,
{4}1xh[4:1],{8}8,{16}6,5,{4}7xh[4:1],{8}8,{16}1,6,
{4}2h[4:1],{8}4,{16}3,5,{4}1h[4:1],{8}7,{16}5,4,
{4}6xh[4:1],{8}3,{16}6,5,{4}7h[4:1],{8}4,{16}6,5,
{8}8h[8:1],4,3/7,{16}5,6,{8}4h[8:1],8,7/3,6h[8:1],
2,1/5,6/2,{16}4,5,{8}3h[8:1],7,6/2,1,
{16}8,8,2,2,7,7,3,3,6,5,4,3,2>8[4:3],1q1[16:11],8,7,
,,,,,,,,,,,,,,,,{8}3xh[8:1],
{16}4,3-1[8:1],{8}5h[8:1],{16}4,6,,,,7,{8}8x-4[8:1],{16}6,6,
8,,,6,{8}5x-3[8:1],{16}7,7,5,,,8,{8}1x-5[8:1],{16}7,7,
1,,,6,{8}6x-8[16:1],{16}5,6,4,,,2,{8}2x-4[16:1],{16}1,2,
8,,,6,{8}6x<8[16:1],{16}5,6,4,,,3,{8}4x<6[8:1],{16}2,2,
4,,,8,{8}7x-3[8:1],{16}1,1,7,,,2,{8}1x<7[8:1],{16}4,4,
1,,,5,{8}6xq2[8:1],{16}4,4,6,,,3,{8}4x<6[8:1],{16}2,2,
4,,,8,{8}7xp3[8:1],{16}1,1,7,,,2,{8}1x<7[8:1],{16}4,4,
{4}1,{8}6/5x<7[8:1],{16}3xh[16:1],4,3,,,1,{8}8xp4[8:1],{16}2,2,
8,,,3,{8}3x-1[16:1],{16}4,3,5,,,7,{8}8x-4[8:1],{16}6,6,
8,,,7,{8}7x-5[16:1],{16}8,7,1,,,3,{8}4x-8[8:1],{16}2,2,
4,,,3,{8}3x-1[16:1],{16}4,3,5,,,7,{8}8x-4[8:1],{16}6,6,
8,,,7,{8}7x-5[16:1],{16}8,7,1,,,3,{8}4x-8[8:1],{16}2,2,
4,,,3,{8}3x-1[16:1],{16}4,3,5,,,7,{8}8x-4[8:1],{16}6,6,
8,,,7,{8}7x-5[16:1],{16}8,7,1,,,3,{8}4x-8[8:1],{16}2,2,
4,,,3,{8}3x-1[8:1],{16}4,3,5,,,7,{8}8x-4[8:1],{16}6,6,
8,,,6,{8}5x,{16}8,1,A7,E7,E6,A5,B8,C,B4,A4,
{4}7xh[4:1],{8}5,{16}8,1,,6,,3,{8}4,2,
{16}7,8,,6,,4,{8}5,3h[8:1],{16}4,3,,7,,5,
{8}6h[8:1],3,{16}5,4,,7h[8:1],,1,,7,{8}8h[8:1],6,
{16}4,5,3,6,{8}2h[8:1],{16}1,2,,7h[8:1],,8,{8}7,1h[8:1],
5,{16}3,4,,2,{8}6h[8:1],1,{16}7,8,,6,{8}2h[8:1],
5,{16}3,4,,2,{8}6h[8:1],3,{16}6,5,,7,{8}2h[8:1],
8,{16}2,1,,3,{8}8h[8:1],4,{16}6,5,{8}6,3h[8:1],
8,{16}2,1,{8}3,7h[8:1],5,{16}5,6,{8}4,8h[8:1],
1,8,3/7,{16}2,1,,3,,1,{8}2h[8:1],8,
{16}5,6,6,4,{8}7,{16}1,8,,2,,8,{8}1,{16}7,4,
{8}6,3h[8:1],5,4,{16}6,5,,5,{8}7h[8:1],3,
{16}1,8,,8,{8}2h[8:1],6,{16}3,4,,4,{8}2,5,
7/3,{16}8,1,,1,{8}8,{16}3,3,5,4,{8}6h[8:1],5,
{16}7,8,7,8,{8}6,1,5/2,{16}6,4,{8}7,{16}1,1,
{8}8,2,{16}6,5,,5,{8}7,{16}3,4,{8}2,6/1,
{16}7,8,7,8,{8}6,{16}1,8h[16:3],,,1,8,{8}2,6,
{4}7/4V25[4:3],{16}8h[8:1],,,7,,7h[8:1],,,{8}8,8h[8:1],
{16},7,{8}7xh[8:1],{4}8x<2[4:3],{2}B6h[4:1],
{4}E2/A1,{8}E7/B6,{16}E3,B8,{8}B4,A1/E2,{4}A5/E6,
{2}E8h[4:1],{8}E4/A4,{16}E7,B1,{8}B5,A8/E8,
{4}5xV74[4:3],{16}1h[8:1],,,2,,2h[8:1],,,{8}1,1h[8:1],
{16},2,{8}2xh[8:1],1v6[4:1],E4h[8:1],,,{4}2V41[4:3],
{16}8h[8:1],,,7,,7h[8:1],,,{8}8,8h[8:1],{16},7,{8}7xh[8:1],
8,7,6/1,{16}3,5,4,5,{8}2,6/3,5,
{4}4/7,{8}3/7-5[8:1],8,{4}7/8,{8}4/8-4[8:1],1,
{4}8/1,{8}5/1-3[8:1],8,{4}1/7,{8}4/7-5[8:1],8,
{4}7/8,{8}3/8-4[8:1],1,{4}8/1,{8}5/1-3[8:1],8,
{4}1/7,{8}4/7-5[8:1],8,{4}7/8,{8}3,4,
6/2,2,1/5,1,8/4,8,3/7-5[8:1],7,
8-4[8:1],8,1-5[8:1],1,2-4[8:1],2,6,6,
{16}7,8,7,8,6,1,6,1,5,2,5,2,4w8[4:3],3,{8}4,
,,,,,,,,6b/2b,
5x,{16}3,4,1,8,{8}6h[8:1],{16}5,6,4,7,2,5,
3,4,1,8,5,6,4,7,{8}7h[8:1],{16}8,7,1,6,3,4,
{8}2h[8:1],{16}6,5,7,4,,,3,3,4,2,{8}5xh[8:1],1,
7h[8:1],{16}5,5,6x,4,,,8,1,6,5,{8}7,3h[8:1],
8,{16}3,4,2,5,,,1,7,2,6,{8}3h[8:1],{16}4,3,
8,1,6,5,{8}7h[8:1],{16}8,7,{8}1,{16}5,4,6,3,7,4,
{8}8h[8:1],{16}1,8,5,6h[8:1],,,3,4,1,8,{8}5xh[8:1],6,
{16}4,4,5,3,6,5,7,2,1,3,7,5,6,1,8,2,
{8}4xh[8:1],{16}3,4,{8}2h[8:1],5,{16}6,5,,5,{8}7,3,
{16}3,5,4,6,1,8,2,7,5,6,4,5,3,8,1,7,
{8}3xh[8:1],{16}4,3,{8}5h[8:1],2,{16}7,8,,8,{8}6,7/4,
{16}2,2,5,4,4,6,5,7,1,8,3,4,2,5,3,6,
{8}4h[8:1],{16}5,4,{8}6<1[8:1],1-5[8:1],6,3,2,{16}4,3,
4,3,{8}5,6x/2,{16}1,1,{8}8h[8:1],3,{16}3,4,2,5,
{8}1xh[8:1],{16}8,1,{8}7,{16}3>8[8:1],4,2,5,{8}3,7x,{16}5,4,
{8}6,3,2/5<7[8:1],1,{16}5x,E1,E8,E7,E6,E5,E4,E3,
{8}2x/6b,5x,{16}3,4,1,8,{8}6h[8:1],{16}5,6,4,7,2,5,
3,4,1,8,5,6,4,7,{8}7h[8:1],{16}8,7,1,6,3,4,
{8}2h[8:1],{16}6,5,7,4,,,3,4,2,5,{8}1xh[8:1],7,
3,{16}6,5,8,4,,,3,4,2,6,{8}5xh[8:1],7,
8/2>4[8:1],{16}6,6,{8}2,7,{16}5,6,{8}5,8,{16}3,4,
2,5,{8}3,{16}7,8,{8}6,{16}1,4,3,5,{8}2h[8:1],6,
8/7,{16}1-3<4[8:1],8,{8}1,7,{16}6x-8>1[8:1],5x,{8}6x,4,2,
{16}3V15[8:1],4,{8}3,6,7-1[8:1],7,4,{16}6,5,4,3,
{8}2/6,7h[8:1],{16}8,7,,7,{8}1,{16}6<7>8[8:1],5,{8}6,3,
2>3<4[8:1],{16}2,1,{8}2x,8,{16}6,5,7,4,5xq1[8:1],3,{8}6,
2,{16}2,3,{8}8x/4,7,{16}5>3[8:1],6,{8}5,7x,7,
{16}2,2,8,1,7x,4,5,3,{8}6,{16}1/5,8,7x,6,5,4,
{8}3/7,8p4[8:1],1,8/2,3>8[8:1],2,3/5,{16}7,7,
5,6,{8}4,3/8-6>5[8:1],7,8/2v4[8:1],1,{16}2/E6,E7,E8,E1,
{8}1x-5[8:1],{16}3,3,{8}1>4[8:1],2,{16}5x,6x,7x,8x,1x,2x,3x,4x,
{32}5x/1x,E1,E8,E7,E6,E5,E4,E3,{8}6x,{16}6,5,8,3,4,1,7x,5,8,2,
{1}4b>5[4:9],
,8xz4[4:9],
,1x>8[4:9],
,2xpp1[4:9],
,5x<4[4:9],
,6xq8[4:9],
,3x>2<1<8<7<6>5[2:7],
,1xq4[2:3],
{4},,,,E7`B6`B2`E3`Ch[384:1],
{16}1b/5b,2,3,4,{24}5,6,7,8,1,2,{32}3-7[8:1],4,5,6,7,8,1,2,
{4}3,{16}6x,5,4,3,{24}2,1,8,7,6,5,{32}4-8[8:1],3,2,1,8,7,6,5,
{4}4,{16}3x,4,5,6,{24}7,8,1,2,3,4,{32}5-1[8:1],6,7,8,1,2,3,4,
{4}5,{16}8x,7,6,5,{24}4,3,2,1,8,7,{32}6-2[8:1],5,4,3,2,1,8,7,
{4}6,{16}1x,2,3,4,{24}5,6,7,8,1,2,{32}3-7[8:1],4,5,6,7,8,1,2,
{4}3,{16}1x,8,7,6,{24}5,4,3,2,1,8,{32}7-3[8:1],6,5,4,3,2,1,8,
{4}7,{16}4x,5,6,7,{24}8,1,2,3,4,5,{32}6-2[8:1],7,8,1,2,3,4,5,
{4}6,{16}5x,4,3,2,{24}1,8,7,6,5,4,{32}3-7[8:1],2,1,8,7,6,5,4,
{4}3/1,{8}2xh[8:1],{16}1,2,{4}8xh[4:1],{8}5h[8:1],{16}6,5,
{4}7xh[4:1],{8}3h[8:1],{16}4,3,{4}5xh[4:1],{8}2h[8:1],{16}1,2,
{4}8xh[4:1],{8}5h[8:1],{16}6,5,{4}7xh[4:1],{8}3h[8:1],{16}4,3,
{4}5xh[4:1],{8}1h[8:1],{16}8,1,{4}7xh[4:1],{8}5h[8:1],{16}6,5,
{8}8,8/4,6,7/5,6,4/8,3,3,
4/2,3,5/1,3,8/4,6,2/5,3,
{16}7,7,4,4,5,5,2,2,E8,E7,A6,B1,C,B5,E3,E4,
{1}Ch[4:3]/4x<2[4:3],
{4}3xh,{16}8x-5[4:5],1h,,1h,{8}8h,2h,{16}2h,1h,,1h,
{8}3h,3h,{4}2xh[4:1],,1-4[4:7],
{1}5x-8[2:3],
{4},,,,3xh[4:1],
{16}4x-1[4:5],3,,3,{8}4,6,{16}6,5,,5,
{8}7,7,{4}6xh[4:1],,8-5[4:7],
{1}4x-1[2:3],
{4},,,,3xh,
{16}5x-8[4:5],4h,,4h,{8}5h,3h,{16}3h,4h,,4h,
{8}2h,2h,{4}3xh[4:1],,4-1[4:7],
{8}4,6,{16}6,5,,5,{8}7,7,{4}6,
{1}8-5[2:1],
{4}2xh[4:1],{16}1x-4[4:5],2,,2,{8}1,7,{16}7,8,,8,
{8}6,6,{4}7xh[4:1],,5-8[1:2],
{1}1x-4[4:7],
E
