&title=Keep It Up
&artist=uma
&first=0
&whole_bpm=280
&demo_seek=29.142
&demo_len=27.428
&des_4=GTDD
&clock_count=4
&lv_4=12
&inote_4=(280){4},,,,
,,5,4,
3h[2:7]/5pp4[140#4:5],,,,
,,,,
,,,,
,,6h[2:8],4,
5qq8[140#4:5],,,,
,,,,
,,,,
,,1,2,
3h[1:2],,7,,
,7,,,
6h[1:2],,3,,
,3,,,
4h[1:2],,6,,
,6,,,
8-2^4-6^8[140#2:1],,,,
,,1xh[8:1],1xh[8:1],
2xbh[1:4]/8,,7,,
6,,5,,
4,,E4,,
C,,E8,,
6xbh[1:2],,E4,,
C,,E8,,
3xbh[2:1],,B7/B8,,
5xbh[2:1],,B1/B2,,
4xb>8[140#4:1],,,,
7xb<3[140#4:1],,,,
2xb<6[140#4:1],,,,
5xb-1[140#4:1],,,,
2xb-4[140#8:1],,7xb-5[140#8:1],,
1xb-5[140#8:1],,8xb-4[140#8:1],,
3xb,3xb,2xb/6,2xb/6,
5-1-3[2:1]*-1-7[2:1],,,,
6b,6,54,54,
3,3,21,21,
8,8,74,74,{8}
6xb,5xb,6xb,,4xb,5xb,4xb,,{4}
3b,3,45,45,
6,6,78,78,
1,1,25,25,{8}
3,4,3,,2b/5b,,,,{4}
6b^1[4:1],5,4^1[4:1],5,
6^1[4:1],5,4^1[4:1],5,
6^1[4:1],5,4^1[4:1],5,{8}
6b,,7xb,5xb,,2xb,4xb,,{4}
2b^5[4:1],1,8^5[4:1],1,
2^5[4:1],1,8^5[4:1],1,
2^5[4:1],1,8^5[4:1],1,
2b,,{16}1,8,1,8,{8}1-5[4:1],8,{4}
,Cf,2x/7x,2x/7x,
6,6,45,{8}4,5,
3,4,{4}3,12,12,{8}
7b/3,,6xb,5xb,,3xb,4xb,,{4}
8b,8,27,27,
3,3,54,{8}5,4,
6,5,6,5,7,4,7,4,{6}
8xb,1xb,2xb,{4}3xb,E8/B7/B8,{8}
3b,4,3,4,2,5,2,2,
6,5,6,5,7,4,7,7,
1,8,2,7,3,6,4,5,
3xb,4xb,3xb,,6xb,5xb,6xb,,{4}
1b>8[4:7]/8,,,,
,,,,{8}
5b,,,4b/6b,,,3b/7b,,{4}
2b/8b,,C,,
3v8[140#4:1]/4,,,,
6-1[140#4:1],,,,
2p4[140#4:1],,,,
5<1[140#4:1],,4,,
5^2[140#4:1],,,,
7-4[140#4:1],,,,
2q6[140#4:1],,,,
8-4[140#4:1],,7,,
7^2[140#4:1],,,,
4p5[140#4:1],,,,
6v3[140#4:1],,,,
2-7[140#4:1],,6,,
5q1[140#4:1],,,,
2q6[140#4:1],,,,
8V64[140#4:1],,,,
3,,E7/B6/E3/B2/C,,{8}
7h[8:3],,,6h[8:3],,,5h[4:1],,{4}
4-8[140#8:1],,6x,,{8}
7h[8:3],,,6h[8:3],,,5h[4:1],,{4}
4-8[140#8:1],,3b,,{8}
2h[8:3],,,3h[8:3],,,4h[4:1],,{4}
5-1[140#8:1],,3x,,{8}
2h[8:3],,,3h[8:3],,,4h[4:1],,{4}
5-1[140#8:1],,Cf,,{8}
7h[8:3],,,6h[8:3],,,5h[4:1],,{4}
4-8[140#8:1],,6x,,{8}
7h[8:3],,,6h[8:3],,,5h[4:1],,{4}
4<8[140#8:1],,3x,,{8}
2h[8:3],,,3h[8:3],,,4h[4:1],,{4}
5-1[140#8:1],,2w6b[140#8:1],,
,,,,
3b/6b,,4h[2:1]/5,,
6b,6,54,54,
3,3,28,{8}8,2,
7,1,{4}7,65,65,
4,4,{8}3,4,2b,,
2b,4,{4}3,45,45,
6,6,71,{8}1,7,
2,8,{4}2,34,34,{8}
2b/5,,74,7x/4xb,,,{4}8,
2b,2,18,18,
7,7,46,{8}4,6,
3,5,{4}3,24,24,
1-5[4:1]/5,,7-3[4:1],,{8}
2b,2,{4}2,35,35,
6b,6,78,{8}8,7,
1b/6b,,,2b/5b,,,3b,4b,
3b,,6,5,7x,,,,
5h[4:1]/6h[4:1],,,3h[4:1]/4h[4:1],,,28,,
4h[4:1]/3h[4:1],,,6h[4:1]/5h[4:1],,,71,,
5h[4:1]/6h[4:1],,,3h[4:1]/4h[4:1],,,12,,
12,,34,,56,,78,,
1h[4:1]/2h[4:1],,,7h[4:1]/8h[4:1],,,64,,
8h[4:1]/7h[4:1],,,2h[4:1]/1h[4:1],,,35,,
1h[4:1]/2h[4:1],,,7h[4:1]/8h[4:1],,,64,,
35,,64,,25,,74,,
3b,3,5,5,1,1,6,6,
4,4,8,8,1b,,1b,,
6b,6,4,4,8,8,3,3,
5,5,1,1,8b,2,8b,,
3b,3,5,5,4,4,7,7,{4}
1xbh[4:1],3xbh[4:1],5xbh[4:1],7xbh[4:1],
1xb>8[4:3],,,,
Cf,,,,
