&title=PLANET//SHAPER
&artist=Camellia
&first=0
&des=MXTAX//TKW
&lv_5=14+
&des_5=MXTAX//TKW
&inote_5=
(147){4},,,,,5<3b[2:3],
,,,6-8-2-4[2:3],
,,,7>5b[2:3],
,,,8-2-4-6[2:3],
,,,1-7-2-5-3[8:9],
,,,1h[8:11],
,,,B5/E6/A5/E5,
{8},7-5-8>3[8:5],,,,,{4}3-7-5-8[2:1],
{8},1,,,,,{4}6h[4:3]/2pp5[2:1],
,,,8h[4:3]/7-2V85[2:1],
,,,4h[4:3]/3p5-1[2:1],
,,,8-6q5[2:1]/2-4p5[2:1],
,,,3h[4:1],
{8}5,4h[8:5],,,,,{4}7h[4:1],
{8}5,6h[8:3],{16},,3b,2,
{4}1p4[8:1]*q6b[8:1],1b/Cf,{32},,,,7b/3b,6/2,{16}5h[16:5]/1h[16:5],,,,,,,{8}7/8,
{16}6h[16:1]/Cf,,,2h[16:1]/Cf,,,{8}8h[16:1]/Cf,{16},4h[16:1]/Cf,,,{4}E7f/E3f/E8/B7/B6/E6/E2/B2/E4/B3/D3/D7,
{16}3x,5,4,6x,4,5,3x,5,4,5,4,5,
4,5,4,5,3x,6,4,6,4,5,3,6,4,6,3,5,
{4}4bxh[8:1],{16}7x,1,8,2x,8,1,7x,1,8,1,8,1,
8,1,8,1,7,2,8,1,7,1,8,2,{4}1h[4:1],
{32}A2,B2,C,B6,{8}A6,{16}7,5,7,5,6,4,6,4,6,4,6,4,
6,4,6,4,5,3,6,2,5,3,6,4,5,3,6,4,
{4}5h[8:1],{16}2,4,2,4,3,5,3,5,3,5,3,5,
3,5,3,5,2,6,1,7,2,6,3,5,{4}4h[4:1],
{32}A6,B6,C,B2,{8}A2,{16}1b,1,8,2,7,3,6,4,8b,8,1,7,
2,6,3,5,2b,2,8,2,7,3,6,4,7b,7,1,7,
2,6,3,5,1b,1,8,1,7,2,6,3,8b,8,1,8,
2,7,3,6,2b,2,8,1,7,2,6,3,7b,7,1,8,
2,7,3,6,1b,2x,3x,4x,5x,6x,7x,8x,{24}1bx,2x,3x,4x,5x,6x,
7x,8x,1x,2x,3x,4x,{32}5bx,6x,7x,8x,1x,2x,3x,4x,5x,6x,7x,8x,1x,2x,3x,4x,{48}5bx,6x,7x,8x,1x,2x,3x,4x,5x,6x,7x,8x,
1x,2x,3x,4x,5x,6x,7x,8x,1x,2x,3x,4x,{4}5bw1b[1.2245##0.2041],{8},,,,,,7<4[8:1],
1-5[8:1],7-3[8:1],1>4[8:1],7,1,
{4}8bh[4:1],{8}2-6[8:1]*-4[8:1],4-8[8:1],{4}2,{16}7w3[8:1],7,,,{4}7,
{48}B1f/A1,E1,{24}E2,,{8}6,5/2,{16}3,4,3,6,5,6,
{4}2b-7[8:1]*-5[8:1],2,8-5[8:1]/6-1[8:1],8p3[8:1]/6q3[8:1],
{16},,,,2x,5,4,5,3,6,5,6,2,4,{8}3,
7bv4[8:1]*>2[8:1],7,,,{4}5-2[8:1]/3-7[8:1],3/5,
8-5b[8:1]/1q4[2:1],8b,Cf,{16}7-3[8:1],7,{8}7,
7,1-5b[8:1],{4}8bxh[8:1],7-5[8:1],{16}1-5[8:1],1,{8}1,
1/7-4[8:1],8,{4}7/2s6[2:1],{8},,,,,,8b-5[8:1]*-3[8:1],
1/7,{4}8b,{8}2-4[8:1],{16}5,5,
{8}2p6[8:1],{16}5,5,{8}2b-5b[8:1],8-5[8:1],2,8,{16}3,3,7,7,
{8}1bp4[8:1]*q6[8:1],2/8,,,{4}E7f/E3f/D7/B6/D3/B3/A7/A2,{8}3/5-2[8:1],{16}4,4,
{8}5,1h[8:1],{16},1x,{8}8-4[8:1]/2-6[8:1],{2}7/3,
{8}5-1[8:1],1-5[8:1],{4}5,2b-7[8:1],{8}2v5[8:1],{16}6,6,
{8}2w6[8:1],{16}8,8,{4}2b,{8}8/4,{16}7,7,5,5,3,3,
{4}1b-3[8:1],{8}1/7p6[4:1],{16}7,7,{4}7,{8}2b<3z7[2:1],{16}4,3/5,
{4}2/6,{16},,,,,,,,6-3[8:1]/4-7[8:1],6/4,6/4,4/6,
{4}4/6,{8}1bp5b[8:1],7,8/1V36[16:3],7,1/8w4b[8:1],7,
{4}8,{16}2-6[8:1],2,{8}2,2/7-4[8:1],8,7/3-8[8:1],2,
{4}3/5h[4:1],{8}1-3[8:1],6-1[8:1],1-5[8:1],6,{4}4w8b[8:1],
4,{16}2,2,1,1,8,8,7,7,{8}6b-4-8[16:3],8-5-1[0.5102##0.3061],
,,,,7<5[8:1],4,7-4[8:1],3,
7-3[8:1],2,7,1,{4}7b/8b-2-4[4:1],{8}4,6,
{4}8-5>4-7[4:1],{8}8/4b,2b,{4}8bh[2:1],{16}E7,E6,E5,E4,
E3,E2,E1,E8,{8}E7,{16}2b/4,4/2,,7b/8,{8}8/7,{16}4/5b,5/4,,6/3b,
{4}6-1[8:1]/3-8[8:1],6/3-5[8:1],{8}3-8[8:1],7,3q7[8:1],6,
{4}3,{16}8-6[8:1]*-5[8:1],8,{8}8,{4}8-3[8:1]*-2[8:1],8,
7-4[8:1]/5-1[8:1],5/7,{8}2/8-4[8:1],1,8/2-6[8:1],3,
{4}2/5-8b[4:1],{16}1,1,1,1,{4}1w5[8:1],1,
Cf/E7/E3/B6/B3,{24}7b-1[8:1]/2b-8[8:1],3/6,{6}4/5,2/7,{24},,{8}7/2-5[8:1],3,
2/7-4[8:1],6,7/2,{16}1,1,{4}1<6[8:1]*>4[8:1],1,
Cf/B6/E7/B3/E3,{16}7b,7,7,2,2,2,7,6,5,8/4,7,6,
1/5,8,7,6,{8}5/1,6/8,1,7/2,{16}6b/3b,4/5,6/3,2/7,
{2}8bh[4:1]/1bw5b[8:1],{4}E7/E3,B5/B4,
B1/B8,E6/E4,E8/E2,E7/E6,
E3/E4,E7/Ch[4:7],B6,E7,
B6,E7,B6,E3,
B3,7,7/1s5qq2[4:5],7,
7,7,7,7,
7,7h[8:1]/2h[8:1],{8}3,3,6,6,
4,4,5,5,6/4h[16:1],6/4h[16:1],3/7h[16:1],3/7h[16:1],
8h[16:1]/2h[16:1],2h[16:1]/8h[16:1],1b,{16}3q7[8:1],4,{8}2,1/3,{16}8,8,{8}8,
{16}E7,E6,E5,E4,{8}1b/E3,{16}7q3[8:1],8,{8}6,7/5,{16}5,5,5,5,
{4}2-5[8:1]/5-8[8:1],5b/2b,1/7v4[8:1],{16}1,1,{8}1,
{16}2/5h[4:1],2,2,2,{8}2b-7[8:1],7v4[8:1],{4}2,{16}6x,6,6,6,
5x,5,5,5,{8}4b,{16}3,4,{8}3,{16}6,5,{8}6,{16}2,1,
{8}3,{16}7,8,{8}6,1/7,2/8,{16}7,7,1,1,8,8,
2,2,{24}7,1,7,1,2,3,4/8,7,6,5,3,5,3,2,1,8/5,6,7,8/1,2,3,
4/8,7,6,5/4,3,2,{4}1/8bpp4b[2:1]*qq4[2:1],{8},,,,,,5bh[8:1],
8,4/6h[4:1],2,8h[4:1],{32}E7f,B6,B5,E5,
,,,,{8}3/8-3-1-5[16:5],,8/4,6,4,{16}2,,,5/3,
{8}5/3,{16}3,7,{8}1-5[8:1],{24}8,7,6,{4}5/1,{8}7h[4:1],2,
{32}B3,B4,,,,,{16}6,7/1,B2,C,B6,{8}8-5[8:1],7/1,8-3[8:1],2,
8w4b[8:1],6,{4}8,{16}2/4,,,1,{8}8/5,{32}E5f,B5,B6,E7,
{8}1p4[8:1],3bx,1/7q4[8:1],6,7/2p5[8:1],1,2/7-1-7[16:3],6,
{4}7/4,{8}3,{24}2,3,4,{8}5/7b,8,7/5,2h[16:1],
2h[16:1],4h[16:1]/6h[16:1],4h[16:1]/6h[16:1],{24}E5f,E6,E7,E8,E1,E2,E3,E4,E5,7,8,1,2,3,4,
{4}5/1b-5[8:1],{8}1/7,6,8-4[8:1],2,8/4-8[8:1],2b,
4x,6,8x-5[8:1],2,8q4[8:1],2,{16}8,1-6[0.3061##0.2041],,,5,
,,,,4/5,6/3,7/2,{8}1/8-3[8:1],4,8-5[8:1],4,
{4}8p5b[2:1],3,{8}2-7[8:1],2,{4}2,
6/3,{16}7b,7,4,6,5,4,5,4,5h[16:1],,,7/8,
{8}8/7-4[8:1],2/5,{16}1,1,{8}1,{16}5,2,6,1,7/8h[16:3],{32},,,,7,6,
{8}5h[16:3],{32}1,2,{16}3,{8}8b,7/5,8b,6/4,1b,2/4,
{16}1bx-3[8:1],1,1-7[8:1],1,{4}1s5b[2:1],{8},,,,,,1/7b,
{16}1,2,{8}3/5-1[8:1],6,5/3>8[8:1],4,
{24}3/8-4[8:1],7,6,5,,,{8}5-8[8:1],6,{4}2-8[8:1]/5-2[8:1],5-7[8:1]/2-6[8:1],
5/2,{8}8b,{16}8/7,1/6,{8}5/2-6-2[4:1],2/5,,,7,
8,{16}6/3,7,8,1,{4}2-7[8:1]/4-1[8:1],2/4,
{8}6-3[8:1]/8-3[8:1],1/2,,,5/2<8[8:1],3,2/6<8[8:1],5,
{16}6/1,2,3,4,{8}5/1v6[8:1],7,1v4b[8:1],3,{16}1,,,7b/5,
,,2/4,2/4,{4}4q5[2:1]/2p1b[2:1],,,,8/7<4[8:1],
{24}7/4-8[8:1],3,2,1,,,{4}1w5[8:1],
1b,{8}3/7b<4[8:1],8,7/2v5[8:1],1,2b/6v1[8:1],7,
6/4-8[8:1],3,4/7-4[8:1],7-2b[8:1],,,5,3,
{16}6,4,6,5,{8}7>1b[8:1],6,7/2-4[8:1],3,2/8-2[8:1],7,
8/5,5,{16}7/3,2/6,{8}1/5,{2}5-1-7-5[8:3]/1b-5-3-1b[8:3],
{4},Cf/B8/B4/B6/B2,7/1>4[8:1],{24}1/5>2[8:1],6,7,8,,,8,
7,6,5,,,{8}6/1>4[8:1],1,1/8<5[8:1],8,{4}8/2v5[8:1]*p6b[8:1],
2b,{16}7b,4,6,4,5,4,4,4,3,4,2,4,
1,4,8,4,{4}7p6-4-2[2:1],{16},,,,,,,,,,,,1b,
6,6,6,2,5,5,5,3,4,4,4,
2,2,4,4,3,3,5,5,1,1,6,6,8,8,7,7,
{48}1b,E1,B1,B2,C,B6,B5,E5,{12}A5,{48}7b,,,6,,,{16}5,4,8b,7,6,5,1b,8,7,6,
2b,2,8,8,3,3,7,6,5/1,2,3/8,7,{4}6/3bv5[8:1],
{24},,,,,,6b,7,8,1,2,3,7,6,5,4,3,2,6,7,8,1,2,3,
7,6,5,4,3,2,5,4,5,4,5,4,6,3,6,3,6,3,7,2,7,2,7,2,
{32}8bz4>1b[2:1]*z4<7[2:1],1,8,1,8,1,8,1,{4}8b,{16},,,,,,E6,B5,
{4}Cf/B2/B3/E3,7h[1:1],{16},,,,B6,B5,B4,B3,
{4}E1f/B8/B1,E7/D7/E3/D3/B6f/B3f/Ch[1:8],{1},,,,,,,{4},,,{24}E5,
B5,B6,B7,B8,E1,{2}1xp4<1[1:2],
{24},,,,,,,,,,,,,,,,,,B4,B3,{6}E3,
{24},,,,,,B2,C,{3}B6,{48},{16}3x,,,{8}3xh[8:5],
{24},,,,,,,,,,,,6x,E6,B5,B4,{48},{16}1x,,,{8}1xh[16:3],
{16},E8,E7,E6,{4}Ch[4:7],{1},{4},{16},{48}E3,
,B2,,B1,,,,,,,,,,,,,,,,,,,,B8,
,B7,,E7,,,,,,,,,,,,,,{16}5/4,,,{8}4/5h[8:5],
{24},,,,,,,,,,,,2x,E3,B3,B4,{48},{16}7x,,,{8}7xh[4:1],
,,{4}8x<4[4:13]*>4b[4:13],,,,,,,,,,,,,,,7/4,
{24}4b/7b,6/3,{48}5/2,,,,,8/1bs5b[0.3061##0.2041],,,,,,,,,{8}1/7bh[4:1],,3,
{16}6,5,{8}4,{32}7b/3b,E7f/E3f,B6/B2,B5/B1,{8}E5/E1,{32},,,,2/8,7/3,{16}4/6h[16:5],,,5,4,
3-7[8:1],2,{8}1h[8:1],{16}3b,,,8h[16:3],,,{8}5h[4:1],{24},,,7,8,1,
{4}2-4-7[16:3]*-8-5b[16:3],2b,{8},B6/B3/Ch[2:1],{16},,,,,,,,7,
7h[16:11],,E6,,,{8}E4,,E2,
{16},,3,4,5,5h[#1.122452],,E6,,,{8}E8,,E2,
,7,{16}5/2-6[0.3061##0.1531],5/2,,2/7-4[0.3061##0.1531],,,{8}7/8,1b,{24}3,4,3,
{8}4,{24}8b/4b,7/3,6/2,{8}5/1,{16}2,3/7,,5,{8}6q2[8:1]/4p8b[8:1],{32},,,,,,,,,,,,,,,,2b,
D3,A3,D4,{16}A4,{32}5b,D6,A6,D7,{16}A7,{32}1b,D2,A2,D3,{8}A3,7/5,
{24}7/5,6/4,5/3,4/2,,,{4}1bs5[16:3],{8},6b<1[8:1],{16},,1,2,
3-7b[8:1],4,{8}5,{16}3b,,,1b-5b[0.3061##0.2041],,,{8}1/5,,7,
{24}4-7[8:1]/8-3b[8:1],7/3,6/2,5/1,,,{4}8b/4b,{32},,,,6b/2b,E7f/E3f,B7/B3,B8/B4,E1/E5,1xh[32:11]/5xh[32:11],,,,,,,,,,,,,,,{16}7,
7h[8:1],,5h[16:3],,,{8}6<2[4:1],,4h[4:1],
{16},,,,3,3h[8:1],,8h[16:3],,,{8}1>5[4:1],,7h[4:1],
{16},,,,6,5/7h[16:5],,1b,,,3,2,1,8,7/B8,6/B1,
5/B2,4/B3,3/B4,2/B5,{4}B6/1bw5[2:1],{16},,,,,,,,,,,,7x,
5,5,5,5,5,7x,4,4,4,4,4,
4,4,4,4,2bx,2,2,2,2,2,8x,8,8,8,8,8,
8,8,8,8,6x,6,6,6,6,6,4x,4,4,4,4,4,
{8}4,{32}E7f,D7/A7/B7/B6/A6,,,{16}2b-5[0.3061##0.153],,,2b/8-4[0.3061##0.153],,,{8}8b/1-6[0.3061##0.153],{16},1b/5w1b[0.3061##0.153],,,{4}5b,
{16}6,6,5,5,4,4,3,3,6,6,5,5,
4,4,3,3,7b,7,5,5,3,3,1,1,7,7,5,5,
3,3,1,1,{8}7b,7/5,5/3,3/1,{16}1b/7b,6/2,3/5,4,
5/3,6/2,{8}1h[8:3]/7h[8:3],{16},,,,,,E8,E7,E6,E2,E3,E4,
{4}7h[4:1],{16}2,8,2,7,2,8,3,8,2,8,2,8,
2,8,2,8,3,3,7,4,6,6,6,4,5,3,6,4,
{4}7bh[4:1],{16}3,6,2,2,5,3,6,6,2,7,2,7,
2,7,2,7,3,3,6,4,7,7,3,6,{4}4bh[4:1],
{32}A2,B2,C,B6,{8}A6,{16}7,5,7,5,7,5,7,5,7,5,7,5,
7,5,7,5,4,5,4,5,4,5,7,5,7,5,7,5,
{4}8bh[4:1],{16}2,1,2,1,2,1,2,1,2,1,2,1,
2,1,2,1,7,1,7,1,7,1,7,1,{4}7bh[4:1],
{32}A8f,B8,C,B4,{8}A4,{24}6b,5,{48}6,,,,,3b,,4,,3,,,,,{8}7b/5,{24}2b,1,{48}2,,,,,7b,,8,
,7,,,,,{8}2b/4,{24}7b,5,{48}7,,,,,2b,,4,,2,,,,,{8}8/6b,{24}3b,1,{48}3,,,,,6b,,8,
,6,,,,,{8}2/4b,{24}7b,5,{48}6,,,,,2b,,4,,3,,,,,{8}8/1b,{24}7b,8,{48}6,,,,,2b,,1,
,3,,,,,{8}5b/4,{24}7b/1,6,{48}5,,,,,2b/8,,3,,4,,,,,{8}7b/1,{32}8b/2,7,6,5,,,1b/7,2,
3,4,,,{8}6b/3b,{4}5b<4[4:1],5x<4b[4:1],E5f/5x-7>2-4[4:1],
E5f/5x<6-8>1-3<4b[4:1],E5f/5x-7>8-2-4[4:1],E5f/5x-7>1-3<4b[4:1],E5f/5x<6-1>4[4:1],
E5f/5x-8-2>4b[4:1],E5f/5x<1-3<4[4:1],E5f/5x<4b[4:1],5x/E5f,
5h[8:1],{8}6b/3b,{16}2,4,{8}3,8,{16}7/3,6/2,{8}5-8b[0.2041##0.2041]/1-4[0.2041##0.2041],
{24},,,,,,8b/4,7/3,6/2,5/1,,,4b/8,7/3,6/2,1/5<8[0.2041##0.2041],,,1b,2,3,4,,,4/8b,
3/7,2/6,5/1>4[0.2041##0.2041],,,5b,6,7,8,,,5/1b,2/6,3/7,8/4>1[0.2041##0.2041],,,8b,7,6,5,,,1/5b,
2/6,3/7,4/8,,,4b/8,3/7,2/6,5/1>4b[0.2041##0.2041],,,5b,6,7,8,,,1b/5,6/2,3/7,4/8,,,5b/1,
2/6,3/7,4/8<5[0.2041##0.2041],,,4b,3,2,1,,,1/5b,2/6,3/7,4/8,,,1b/5,2/6,3/7,4/8,5,6,
7,8,1,2,3,4,{4}5b/8b<5b[8:1],{24}4b,3,2,1,,,4/8b,3/7,2/6,5/1>4b[0.2041##0.2041],,,5b,
6,7,8<5b[0.2041##0.2041],,,1b,2,3,4,,,8b/4,7/3,6/2,5/1,,,4b/8,3/7,2/6,5/1>4b[0.2041##0.2041],,,5b,
6,7,8,{48},,,,{16}7h[16:1]/3h[16:1],,,5h[16:1]/1h[16:1],,,{8}8h[16:1]/4h[16:1],{16},7/4,6/3,5/2h[16:5],
,C,{8}B8,{16}B6/E7/E6/A6,,,8/1,,,E3,C,{8}E7,5/4,
2/7,8x,{24}8b/4,7/3,6/2,5/1,,,8/4b,7/3,6/2,5/1>4[0.2041##0.2041],,,5b,6,7,8,,,1b/5,
2/6,3/7,4/8,,,5b/1,6/2,7/3,4/8<5[0.2041##0.2041],,,4b,3,2,1,,,1/5b,2/6,3/7,4/8<5[0.2041##0.2041],,,4b,
3,2,1,,,8b/4,7/3,6/2,5/1,,,4b/8,3/7,2/6,5/1>4[0.2041##0.2041],,,5b,6,7,8,,,4b/8,
7/3,6/2,5/1,,,2b/1b,8/3,7/4,5/6,,,7b/8b,6/1,2/5,4h[8:3]/3h[8:3],,,,,,,,,,,,{8}B7f/A7/E8/E7,
2b-6[8:1],2,8-4[8:1],8,{16}5,5,5,5,
3,3,3,3,1,1,8,8,{32}1,2,{16}3,8,8,{32}2,3,{16}4,7,7,
{32}2,3,4,5,6,7,8,1,{24}2b,3,4,5/1,2,3,4/8,1,2,3/7,8,1,2/6,7,8,1,5,1,
5,1,4,2,4,2,{4}3bV17V13[2:1]*V57V53b[2:1],{8},,,,,,5b/6-1b[8:1],
8/1-5-8[4:1],,,3v1[8:1],1q5-8[16:3],
,,7<4[8:1],7>2b[8:1],,,3b-8[8:1],1/8-4[8:1],
{2}4w8b[8:1],{8}2-5[8:1]/6-1[8:1],4/8,{4}2/6,
{8}7<4[8:1],8/4-8[8:1]*-2-6-4b[8:3],{4}7,{8},,8w4b[8:1],3/5,
,,6b/2b>5[8:1],8,2/1<6[8:1],8,1/2-5[8:1],3,
2/8-4[8:1],7,8/1-6[8:1],3,7-4[8:1]/1-4[8:1],8x,{4}7-5-2[16:3]/1-3-6[16:3],
{8},,7x/1xq5[8:1],8,{16}5/1pp8<5>4b[2:1],6,7,8,{4}1,
{8},,2h[4:3],E5,B6/E7,B8/E1,{16}B3/B2,E5,E6,E7,
{4}E8,{8}4b/2b,7/8,{24}2b/4b,5/3,4/6,5/7,,,{8}6b/1b,3/4,
{24}6b/1b,7/2,8/3,1/4,,,{8}2b/6b,8,{24}6b/2b,3/7,4/8,5/1,,,{8}8b/4b,6/2,
{32}8b/4b,7/3,6/2,5/1,{8}4/8,7/2-5<6[8:1],1,2/7-4>3[8:1],8,7/2-5-1[16:3],1,
2/7-4-6-8[16:5],8,{4}7,2b-4[8:1],{8}5-8[8:1]/2-8[8:1],7,
{4}5/2,{16}B7f,B3,B6,B2,B5,B1,E6,E2,E7,E3,E8,E4,
{4}Cf/E7/E1/E5/E3,{16}7b,3,6,2,5,1,6,2,7,3,8,4,
{24}7b/3,6/2,1/5,4/8,{48},,,,{16}1s5-1b[1.6327##0.5102],1,2,2,3,3,4,4,5,5,6,6,
7,7,8,8,{4}1b,{16},,E8,E2,E6,E4,E7,E3,
{4}E5/Cf/B5/B4,{8}2v5[8:1]*>5[8:1],8/1,{4}2,{16}7-5[8:1]*-2[8:1],7,,7,
{4}7,{48}B1f/A1,E1,{24}E2,,{8}6/4,8/2,{16}E3,E4,E5,E1,E8,E7,
{4}2b-5>4-8[4:1],2/8w4b[8:1],,2v5[8:1]/7-2-7[4:1],
7/2,{16}1x,2,3,4,6,5,6,2,4,3,7,8,
{2}6bv3[8:1]*<1[8:1],{16}4v5[8:1]/2v1[8:1],,,4/2,{4}2/4,
8<7-2[8:1]/6-3[8:1],8b/6,Cf/E7/E3,{16}3/7-3[8:1],6/2,{8}5/1,
{2}5v8b[8:1]*v2[8:1],{4}7h[4:1],{16}1-5[8:1],2,{8}3,
1/7-4[8:1],6,7/2>5b[4:3],1,{16}7h[8:1],,,7h[16:1],,,{8}6h[16:1],
{16},6h[16:1],{32},,,,E6f,B6/B5,B7/B4,E4/E8/D8/D4,A8/B8/B3/A3,E1/D1/E3/D3,,,{4}2xh[4:1],{8}5,5,
{4}3/4h[4:1],{8}1,5/3,8,6/4,E4/E2,E5/E1,
{4}E6/E8,{8}7,7,{16}6/5,,,4,{8}5h[4:1],{16}3-6[4:1],2,
{4}1,{8}1,1,{4}8-5[4:1],{8}6,6,
{4}7-4[4:1],{8}3,3,{4}2-7[4:1],{8}6,6,
{4}5-8[4:1],{8}3,3,{4}4-1[4:1],{8}7,7,
{4}5<8[4:1],{8}2,2,{4}4>1[4:1],{8}8,8,
{4}5p8[4:1],{8}1,1,{4}4q1[4:1],{16}1,8,7,6,
{1}5-7-2-8v6[4:15]*-3-8-2v4b[4:15],
{4},,,,,,,,,,,,,7h[8:3],
{8},4h[8:5],,,,,{4}8qq5[2:1],
,,,2h[8:3],
{8},5h[8:5],,,,,{4}1pp4[2:1],
,,,Ch[4:63],
{8},B7,,,,,{4}E1,
{8},E6,,,,,{4}E3,
{8},E5,,,,,{4}B6,
{8},7q2[4:7],{1},,{4},,E2,
{8},B7,,,,,{4}B4,
{16}B5,B6,E7,7xh[16:133],{1},,,,,,,,{4},{32},B6/A6/B2/A2,
E6/D6/E3/D3,B5/A5/B3/A3,E5/D5/E4/D4,B4/A4f,
E
