&title=海神寓拝 [DX]
&artist=sasakure.UK
&first=0.018
&des=fwmc_R in the BOX
&lv_5=13
&inote_5=(66.66666667){4},,
(200){4}3>5[66.66666667#6:1],4,4,4h[2:1],,,
5<4[66.66666667#12:3],4,4,5,6,7,
8h[4:1],2h[4:1],6h[4:1],{8}1,1,1,8,8,8,
{4}1b^4[66.66666667#12:1],5,5,6x^1[66.66666667#12:1],7,7,
2^5[66.66666667#12:1],3,3,7x,8,8,
7^2[66.66666667#12:1],3,3,4x^7[66.66666667#12:1],5,5,
8^3[66.66666667#12:1],1,1,7x,6,6,
{4}4bqq6[66.66666667#6:1]b,5,5,6x,7,7,
8q1[66.66666667#6:1]b,1,1,2x,3,3,
5pp5[66.66666667#6:1]b,1,1,2x,3,3,
4bpp3[66.66666667#6:1]*pp3[66.66666667#6:1],6,6,7,8,,
1bh[4:1],,B6,B5,B3,B1,
B7/B3,{16},,E6,B5,{8}B4,E4,{4}C,E8,B6/B2,
{8}E2,E8,{8}2x,2xh[8:1],{4}3h[4:1],4h[4:1],{8},5,5,4,
{8}6,6,4,4,6h[4:1],,{8}3,3,5,5,4h[4:1],,
{4}8<4[66.66666667#6:1]b,,B3,B4,B6,B8,
B6/B2,{16},,E2,B1,{8}B8,E8,{4}C,E4/E6,E5,
{16}E7,C,E3,,{8}7x,7xh[8:1],{4}6h[4:1],5h[4:1],{8},1,1,8,
{8}1<4[66.66666667#6:1]b,1,2,2,C,,{4}1^4[66.66666667#12:1],1,1x,
{8}8b,,8<4[66.66666667#12:2],8,{4}3,4x-8[66.66666667#6:1],1,8qq8[66.66666667#6:1],
2,3,3,4x^1[66.66666667#12:1],3,3,
{8}5,,5^8[66.66666667#12:2],5,{4}1,8x-4[66.66666667#12:1],4-2[66.66666667#12:1],2-6[66.66666667#12:1],3,1,1,1x^4[66.66666667#12:1],8,8,
{8}5^8[66.66666667#12:1],,5,5,{4}1,2x-5[66.66666667#12:1],5-8[66.66666667#12:1],8-3[66.66666667#12:1],
7,7,6,6x^1[66.66666667#12:1],1,2,
{4}2^5[66.66666667#12:1],3,3,6xpp1[66.66666667#12:3],6,6,1>5[66.66666667#12:2]*q5[66.66666667#12:2],2,
{4}2,,,,
{8}7bh[8:1]/1,,1,6h[8:1]/2x-5[66.66666667#24:1],,2,5h[8:1]/3,,3,2x/5,,7x,
{8}1h[8:1]/8,,8,2h[8:1]/7x-4[66.66666667#24:1],,7,3h[8:1]/6,,6,7x/4,,3x,
{8}8h[8:1]/2,,2,7h[8:1]/1x-5[66.66666667#24:1],,1,6h[8:1]/8,,8,1x/5,,6x,
{8}1h[8:1]/7,,7,2h[8:1]/8x-4[66.66666667#24:1],,8,3h[8:1]/1,,1,8x/4,,3x,
{8}5h[8:1]/3,,3,6h[8:1]/2x-5[66.66666667#24:1],,2,7h[8:1]/1,,1,2x/5,,7x,
{8}3h[8:1]/6,,6,2h[8:1]/7x-4[66.66666667#24:1],,7,1h[8:1]/8,,8,7x/4,,3x,
{8}2b/4b,,3,3,3b,,{8}6,,4b,4,4,,
{4}7bh[4:1],5h[4:1],3bh[4:1],1h[4:1],8b,8,
{4}4bqq6[66.66666667#6:1],5,5h[16:1],6x,7h[16:1],7,
8q1[66.66666667#6:1],1,1,2xh[16:1],3,3h[16:1],
5pp5[66.66666667#6:1]b,1,1h[16:1],2x,3h[16:1],3,
4bqq1[66.66666667#6:1]b,6,6,7xh[16:1],8,8h[16:1],
2pp1[66.66666667#6:1],8,8h[16:1],7x,6h[16:1],6,
6pp6[66.66666667#6:1],1,1,2xh[16:1],3,3h[16:1],
{4}8b/4b,7/3,6/2,
(50){4}5xv7<3-7[8:3]/1xv3>7-3[8:3],
(200){4},,,,,,,
{4},,,{8}4,5,{4}B7/3xh[4:6],,,B1,
{4},B2,B5,,E7,B6,B3,E3,
B8/B4,,C,E2,B2,E6,
B6,,,B7,B2,{8}E4,C,
{4}2^5[66.66666667#6:1],,,E7/B6,,B5,
6V84[66.66666667#6:1],,B1,B2,E3,B3,
{4}3>6[66.66666667#6:1],,E4,B4,B5,B6,
E7/1xs5[66.66666667#6:1],8,8,1,,,
{8}8b,,8<4[66.66666667#12:2],8x,{4}2,4xpp3[66.66666667#6:1],3,3>5[66.66666667#6:1],
2x,2,1,4xqq1[66.66666667#12:2],3,3,
{8}5x,,5^8[66.66666667#12:2],5,{4}5,8x-4[66.66666667#12:1],4-2[66.66666667#12:1],2qq6[66.66666667#12:2],3x,1,1,2x^5[66.66666667#12:1],3,3,
{8}6b^1[66.66666667#12:1],,6,6,{4}1,2x-5-8[66.66666667#6:1],4,8-3[66.66666667#12:1],
7,7,6,6x^1[66.66666667#12:1],1,2,
{4}2^5[66.66666667#12:1],3,3x,6pp1[66.66666667#12:3],6,6,1>5[66.66666667#12:2]*q5[66.66666667#12:2],2,
{4}2,,,,
{8}4b^1^7[66.66666667#24:3],5,6,7x^4[66.66666667#12:1],8,1,{4}8xh[8:4],,,
{8}6x^1^3[66.66666667#24:3],5x,4,3x^6[66.66666667#12:1],2,1,{4}2xh[8:4],,,
{8}1x^4^6[66.66666667#24:3],8x,7,6x^1[66.66666667#12:1],5,4,{4}5xh[8:4],,,
{8}3x^8^6[66.66666667#24:3],4x,5,6x^3[66.66666667#12:1],7,8,{4}7xh[8:4],,,
{8}5b/2b-5[66.66666667#24:1],,6x,2x,6x,2x,{8}7b-4[66.66666667#24:1],,3x,7x,3x,7x,
{8}1b-6[66.66666667#24:1],,7x,1x,7x,1x,{8}8b-3[66.66666667#24:1],,2x,8x,2x,8x,
{4}2b-5-8[66.66666667#12:2],5x,8>5[66.66666667#12:2],7h[8:1],6,6,
7bV53V17[66.66666667#12:3],7,5,B4,C,B1,
{4}4xqq4[66.66666667#6:1],,B6,B7,,7,
8qq8[66.66666667#6:1],E2,E3,E4,4,4,
{4}3pp2[66.66666667#6:1],,B1,B7,,7,
7pp5[66.66666667#6:1],E2,E3,E4,4,4,
{4}2q5[66.66666667#6:1],8,8,7,6,6,
6qq7[66.66666667#6:1],8,8,1,2,2,
1>5[66.66666667#6:1],8,8,7,6,6,
6pp6[66.66666667#6:1]/2pp2[66.66666667#6:1],1/5,
{4}1/5,6/2,,,
{8}1b,8x,2,7x,1h[16:1],8,{8}4x,5,3h[16:1],6x,4,5,
{4}3x^6[66.66666667#12:1]b,6x^1[66.66666667#12:1]b,1>3[66.66666667#12:1]b,7x,4,5,
{8}8x,2x,7,3x,6h[16:1],4,{8}7x,1,6h[16:1],2x,5,3,
{4}6x-3[66.66666667#12:1]b,3-8[66.66666667#12:1]b,8-5[66.66666667#12:1]b,2xh[16:1],4,4xh[16:1],
{8}1^4^6[66.66666667#24:3],8,7,6^1[66.66666667#12:1],5x,4x,{4}5xh[8:4],,,
{8}3^8^6[66.66666667#24:3]b,4,5,6^3[66.66666667#12:1]b,7x,8x,{4}7xh[8:4],,,
{8}4^1^7[66.66666667#24:3],5,6,7^4[66.66666667#12:1],8h[16:1],1,{4}8xh[8:4],,,
7/3,6/2,5/1,1v4[66.66666667#12:1]b/8v5[66.66666667#12:1]b,7/2,3/6,
(192){4}1b/8b,,,
(200){4}1s5[66.66666667#24:5]*s5[66.66666667#24:5],,,,,,,,,E
