&title=トリノコシティ
&artist=40mP feat. 桐谷遥&桃井愛莉&初音ミク
&first=0
&des=夢に見た世界
&lv_5=13
&inote_5=(135){4},,,,
{16}5x/6x,,,,3,,4,3,4,,B2,,,,5x/6x,,
,,4/5,,3,,4,3,4v7[8:1],,B2,,,,,,
5x/6x,,,,3,,4,3,4,,B2,,,,5x/6x,,
,,4/5,,3,,4,3,4,,B2,,B8h[8:2],,,,
5xb,,,,3,,4,3,4,,B2,,B8,,5x/6x,,
,,4/5,,3,,4,3,4^5v7[32:5],,B2h[8:3],,,,,,
6x,,,,3,,4,3,4,,B2,,B8,,5xh[32:1]/6,,
,,3xh[32:1]/4,,,,2/1xh[32:1],,,,7xh[32:1]/8q2[8:2],,,,6xh[32:1],,
{16}5xb-1[8:1],,,,3,,3-1^8[8:1],,,,7-4-6[16:3],,,,2,,
,,3,,8,,5,6,5,,8-5-7[16:3],,,,3,,
3x-1^8[8:1],,,,5,,5V74[16:3],,,,2-6[8:1],,,,5,,
,,7,,5,,4,5,3-5[8:1]*^2-8[8:1],,,,,,,,
5x-2[8:1]/6x,,,,7,,8-6^5[8:1],,,,2v4[8:1],,,,7^2[8:1],,
,,3,,3,,4,3,5,,1-5[8:1],,,,6,,
7x-3[8:1],,,,2,,2-4^5[8:1],,,,7v6-4[16:3],,,,4,,
,,3,,4,,3-5^7-1[8:2],4,2,,B2h[8:2],,,,,,
{16}8xbh[8:2],,,,4,,7,2,6v8-5[8:2],,5,,,,4,,
,,3,4,2,,2,5,3,,1V35[16:3]/6,,,,7,,
8xh[8:2],,,,4,,7,2,6v4-7[8:2],,5,,,,3,,
,,3,4,2,,6v1[8:1],,1q5b[8:1]*-7[8:1],,,,,,,,
3xh[8:2]/6x,,,,7,,4,6,2v3-8[8:2],,8,,,,7,,
,,6,4,5,,5,3,4,,5V71[16:3]/1,,,,2,,
3xh[8:2],,,,7,,4,6,2v3-8[8:2],,8,,,,7,,
7,,6,,2^3-6^7-2[8:3]/5,,,,,,B7`B6,,,,,,
{4}E8h[8:8]/3x^4v2^8v6^7[8:28],,,,
B8h[8:8],,,,
B1h[8:8],,,,
E2h[8:5],,,,
E4h[8:8]/7x^8v6^5[8:18],,,,
B4h[8:8],,,,
{8}B3h[8:3],,,,,3x,4x,2x,
1b/B6f,,3/7,2v5b[8:1]/6v1[8:1],,,,3,
{8}2bv5[8:1]/5b,,6v1[8:1],7,2,3,4,5qq1[8:2]/B8h[16:3],
{16},,,,7x^4[8:1],,7x,,D2,D3,D4h[8:3],,,,7,,
{8}8p4[8:1],8,4^7[8:1],,3V51[16:3],3,,7,
{8}8p4[8:1],8,4^7[8:1],3,2-5b[8:1]*v8[8:1],2,,,
{8}3bv6[8:1]/6b,,7v2[8:1],8,3,4,4,7qq1[8:2]/B5h[16:3],
{16},,,,4x^1[8:1],,4x,,D1,D8,D7h[8:3],,,,4,,
{8}3v6[8:1],3,6^3[8:1],,8V62[16:3],8,,4,
{8}3v6[8:1],3,6^3[8:1],7,8qq6[8:1]*-3b[8:1],8,,,
{8}2bv5v2b[8:2]*v5[8:1]/5b,,6v1[8:1],7,,3,4,5qq1[8:2]/B8h[16:3]/B7hf[64:1],
{16},,,,7x^6^5^4b[8:1],,7x,,D2/E2,D3/E3,E4h[8:3]/D4h[8:3],,,,7,,
{8}8p4[8:1],8,4^5^6^7^8[16:3],,2-5-1[16:3],2,,7,
{8}8p4b[8:1],8,3^4^5^6^7b[16:3],2,1q5^6b[8:1]*v4^3[8:1],1,,,
{8}2bv7v2b[8:2]*v7[8:1]/7b,,6v3[8:1],5,,1,8,6pp4[8:2]/B8h[16:3]/B7hf[64:1],
{16},,,,1x^2^3^4b[8:1],,1x,,D5/E5,D6/E6,D7h[8:3]/E7h[8:3],,,,2,,
{8}3-1^8[8:1],3,8^1^2^3^4[16:3],,6V48[16:3],6,,2,
{8}3-1^8b[8:1],3,7^8^1^2^3b[16:3],6,
5pp5[8:2]*qq5<5<1>5^7^1^3^5^6^7^8^1b[8:16],5,,,
{4}E6f/E5`A5f,,C,,
C,,B8/B1,,
{16}7x/4x,,7/4,,5,,6,4,5,3,4,,2,,2,,
4,3,5,4,6,,4,5,3,4,2,,3,5,2,,
7/8,,1/6,,2/5,,3,4,3,4,2,,4/5,,2,,
6/5,,4/7,,3/8,,2,1,2,1,3,,1/8,,6,,
3,4,3,4,2,5,2,5,1pp1[8:2],,6v8[8:1],,,,,,
{16},,3/4V68[16:3],,2/5,,,,,,3-8b[8:1],4,2,,B7,,
{16}6xb,,,,3,,4,3,4,,B2,,B8,,5x/6x,,
,,4/5,,3,,4,3,4^5v7[32:5],,B2h[8:3],,,,,,
6x,,,,3,,4,3,4,,B2,,B8,,5xh[32:1]`6,,
,,3xh[32:1]`4,,,,2`1xh[32:1],,,,7xh[32:1]`8,,,,6`5xh[24:1],,
,,3xh[24:1]`4,,,,2`1xh[24:1],,,,7xh[24:1]`8,,,,6`5xh[16:1],,
,,3xh[16:1]`4,,,,2`1xh[16:1],,,,7xh[16:1]`8,,,,6`5xh[8:1],,
,,3xh[8:1]`4,,,,2`1x,8x,7x,6x,5xw1[8:8],4x,3x,2x,,,
{4},,,,E
