&title=Tojita Sekai
&artist=Camellia
&first=0.06
&des_1=末路
&des_2=末路
&des_3=末路
&des_4=末路
&des_5=末路
&des_6=末路
&lv_6=14
&des_7=末路
&des=末路
&inote_6=(102.5){4},,,,
{32}3/6h[16:60],4,5,,,,,,{4},,,,,,,
{16}E3,E4,E5,,{4},,,,,,,
{16}3h[8:3]`4,,,,,,6,{48}E4,B4,B5,{16}E6/7h[8:8],,,,,,4,,4h[8:6],,,,,,,,,,,,6,,,,
{16}5h[8:3]`6,,,,,,7,{48}E5,B4,B3,{16}E3/8h[8:4],,,1,1,,2,,3h[8:4],4,5,,,,,,6h[8:7],5,4,,,,,,
{48}E3,B3,,{16},,,,,4,{48}E7,B7,B8,{16}E1/4h[8:4],,,,,,8,,
8h[8:3],,,,,,3,,2h[8:2],,,,7,,,,
{48}A1/6h[8:3],B1,,{16},,,,,3,{48}E6,B5,B4,{16}E4/3h[8:4],,,8,8,,7,,
{48}6h[8:4],,,5,,,4,,,,,,,,,,3,,,,,,,,3h[8:4],,,4,,,5,,,,,,,,,,7,,,,,,,,
{32}7h[16:3],,,,,,1h[16:3],,,,,,E6,B5,B4,E4,C,,,,,,,,,,,,,,,,
2,,5,,3h[8:2],,4,,,,,,8,,,,7,,4,,6h[8:2],,5,,,,,,1,,,,
{16}7>4[8:12]/2<5[8:12],,,,,,,,,,,,,,,,
,,,,,,,,,,,,,,,,
3h[16:3]/4,,,4,3,,5,,3h[16:3]/6,,,5,4,,6,,
7h[8:7]/5,,,4,4,,3,,B2/E3,,,3,3,,4,,
6h[16:3]/5,,,5,6,,4,,6h[16:3]/3,,,4,5,,3,,
2h[8:7]/4,,,5,5,,6,,B7/E7,,,6,6,,5,,
3h[8:4]/4,,,4,4,,B5/B6,,7h[8:4],,,5,5,,B2/B3,,
1h[16:3],,,2h[16:3],,,3,,7h[16:3],,,6h[16:3],,,5,,
1>1[8:8]/Ch[8:4],,,,,,,,,,,,1,,1,,
1>1[8:8],,,,,,,,B5,,,,C,,,,
1>5[8:4],,,,,,7,,7h[8:2],,,,,,4,,
6h[16:3]/4,,,5h[16:3],,,4,,4/3p6[8:2],,,4,3x,,,,
5x<5[8:8],,,,,,,,C,,,,5,,5,,
5<5[8:8],,,,,,,,B1,,,,C,,,,
5<1[8:4],,,,,,3,,3h[8:2],,,,,,1,,
2h[8:2]/1,,,,,,8,,1h[8:2]/8,,,,6-4-7-3-8[8:3],,,,
,,,,,,,,
4xh[8:2],,,,,,6q3[8:3],5,7h[8:2],,,,,,5,,
5h[8:2],,,,,,3<7[8:3],4,2h[8:2],,,,,,1,,
1h[16:3],,,8,2>5[8:2],,2,,5p1[8:2],,,,1qq6[8:4],,,,
8h[8:2],,,,,,5,,5<1[8:2],,,,,,2,,
2h[8:2],,,,4,,4V28[8:3],3,5h[8:2],,,,,,7,,
7h[8:2],,,,5,,5q1[8:3],6,4h[8:2],,,,,,3,,
3h[8:2],,,7,7pp4[8:4],,,,,,3,,3,,2,,
1>8[8:4],,,,B6/B7,,8,8,8V24[8:2],,,,,,6,,
6h[8:2],,,,,,4V68[8:3]/5,5,2h[8:2],,,,,,3,,
3h[8:2],,,,,,4/5>1[8:3],4,7h[8:2],,,,,,8,,
8h[16:3],,,1,8<5[8:2],,8,,5-1[8:2],,,,1>4q8[8:4],,,,
3h[8:2],,,,,,2,,2-5[8:2],,,,,,7,,
7h[8:2],,,,,,4<8[8:3],4,4h[8:2]/6,,,,,,2,,
2h[8:2],,,,,,5>1[8:3],5,4/5h[8:2],,,,,,8,,
8h[8:2],,,2,2>5[8:2],,,,,,,,,,7,,
5/6,,,4/5,,,3/4,,2h[16:3]/5,,,8h[16:3],,,6,,
4-8-6[8:4]/5-1-3[8:4],,,,,,,,,,,,,,2/7,,
2/7,,,1/3,,,6/8,,4>1[16:3]/5<8[16:3],,,,4/5,,,,
(205){24}E1f,B1/B8,B2/B7/C,E3/E7,B4/B5,E5,{8},,,,,,,,,,,,,,
,,,,,,,,,,,,,,,,
E3/E4,,,,,,E6/E7,,,,,,,,,,
{16}2-5[8:1],,2h[16:1],,,,7-3[8:1],,7h[16:1],,,,1-5[8:1],,1h[16:1],,,,8,,8>3[8:1],,,,{24}7b/8b,6,5,{16}4,,,,,,
{16}2/6,,2-5[8:1]/6-2[8:1],,,,2/6,,,,,,3/8,,3-8[8:1]/8-4[8:1],,,,3/8,,,,,,6h[8:1],,5h[8:1],,4h[8:1],,3h[8:1],,
1,,1-4[8:1]*-6[8:1],,,,1,,,,,,8,,8<5[8:1],,,,8>3[8:1],,,8,,,E5/B4f/E4,,,,,,,,
7/3,,7-4[8:1]/3-7[8:1],,,,7/3,,,,,,6/1,,6-1[8:1]/1-5[8:1],,,,6/1,,,,,,3h[8:1],,4h[8:1],,5h[8:1],,6h[8:1],,
8,,8v5[8:1]*v3[8:1],,,,8,,,,,,2,,2h[8:2],,,,E5,,,7/B3/E3,,,B6f/E6/1,,,,,,,,
4/7,,4-8[8:1]/7-5[8:1],,,,4/7,,,,,,1/4,,1-3[8:1]/4-8[8:1],,,,1/4,,,,,,3h[8:1],,4h[8:1],,5h[8:1],,6h[8:1],,
3,,3v6[8:1]*-8[8:1],,,,3,,,,,,5,,5-8[8:1],,,,5-2[8:1],,,5,,,B7/B6/E7f,,,,,,,,
5/2,,5-1[8:1]/2-4[8:1],,,,5/2,,,,,,8/5,,8-6[8:1]/5-1[8:1],,,,8/5,,,,,,6h[8:1],,5h[8:1],,4h[8:1],,3h[8:1],,
1,,1<6[8:1]*>4[8:1],,,,1,,,,,,8,,8-4[8:1],,,,1/8,,{12},1,2,{16}3/5,,,7/1,,,4/6,,
Cf/2b,,,,,,,,,,,,,,,,,,,,,,,,,,,,,,,,
4b-7[8:1]/5b-1[8:1],,,,,,,,2/5,,3,4,3,,3,,3,,5,4,5,,5,,4,,4,,3,,3,,
2-5[8:1],,,,,,,,4/7,,4,,6,5,6,,6,,4,5,4,,4,,6`5,,,6`5,,,6`5,,
4b/8b-5[8:1],,,,,,,,3/7,,,,6,5,6,,6,,4,5,4,,4,,5,,5,,6,,6,,
7<4[8:1],,,,1,,,,8p4[8:1],,,,2,,,,1<6[8:1],,,,3pp8[8:3],,,,,,,,,,,,
7b-4[8:1]/1bx-5[8:1],,,,,,,,3/6,,,,{12}4,4,8,8,1,1,6,6,2,2,5,5,{16}3,,3,,
4x-1[8:1]*-8[8:1],,,,,,,,3/5,,,,{12}6,6,3,3,5,5,2,2,,{16}3h/4,,,3h/4,,,3h/4,,
1b-4[8:1]/5b,,,,,,,,2/6,,,,{12}5/6,7,8,1/4,3,2,1/5,6,7,8/3,2,1,{16}4x/8q4q2q6<8>7[8:13]b,,4x/8x,,,,,,,,,,
,,,,,,,,,,,,,,,,,,,,,,,,
1b-5[8:1]/5b<8[8:1],,,,,,,,7/4,,4,,7,6,5x,,5x,,7,6,5xp2[8:3],,5x,,5/8,,,,,,,,
1-5[8:1],,,,,,,,2/6,,2,,2,3,4x,,4x,,3,4,5x,,5x,,3`4,,,3`4,,,3`4,,
5b/1b-4[8:1],,,,,,,,2/5,,2,,2,3,4x,,4x,,2,3,4x-8-5-7[8:3],,4x,,4/1,,,,,,,,
{12}2x,1,3,8,4h[12:2],,5x,3,6,2,7h[12:2],,8x,6,1,5qq8[8:3],2h[12:2],,,,,,,,
{12}1b-5[8:1]/2b-6[8:1],,,,,,4/7,,,3,4,2,8,5,6,2,5,3,8,4,7,{16}1,,1,,
{12}1x-6[8:1]*-5[8:1],,,,,,4/3,,,6,5,8,1,4,3,7,4,,{16}6h/5,,,6h/5,,,6h/5,,
4b/8b-5[8:1],,,,,,,,2,,2,,2,,3/4,,,,7,,4/6,,3,,4/5,,6,,3>7[8:2]/7q4[8:2]b,,,,
,,,,,,,,6,,6,,6,,4/6,,,,3,,2/5,,5,,1/6,,1,,8-3[16:2]/7-4-7[8:32]b,,,,
{8}E8f,,,,,,,,,,,,,,,,2,,2,,2,,2,,2,,2,,2,,2,,
{16}3h[16:3],,,8,,,1/7,,6h[16:3],,,1,,,2/8,,4h[16:3],,,8,,,1/7,,5h[16:3],,,1,,,2/8,,
3x/7,,4,,2/6x,,5,,{32}2x,3,4,5,6,7,8,1,2x,3,4,5,6,7,8,1,
2bx/7bx,E3/E7,B3/B6/C,B4/B5,E5,,,,,,,,,,,,3xh[8:2]/7xh[8:2],,,,,,,,,,,,,,,,
(102.5)
{48}3bx-5-2p8[8:5]/7bx,2/6,1/5,{16}4h[16:7]/8,,,,,,,,,,,,,,,
{48}4bx/8bx-5-1[16:5],1/5,2/6,{16}3h[16:7]/7,,,,1!-4[32:5],,{32},4!-7[32:5],{16},,,,,,,,
{48}4bxs8<5[16:7]/8xb,3/7,2/6,{16}5h[16:7]/1,,,,,,5!-1[16:3],,,,,,,,,
{48}6bx/2bx,3/7,4/8,{16}5h[16:5]/1,,,,,8,8,7b/E5/B4/E4,,1,1b/E6/A6/E7,,8,8b/E3/B3/E4,,
{64}8b-4-2-6[16:7],7/1,6/2,5/3,4h[16:7],,,,{16},,,,,6!-1[16:3],,,,,,,,,
{64}1b/2b-7-5v3[8:4],3/8,4/7,6,5h[16:7],,,,{16},,,,,,3!-8[8:1],,,,,,,,
{64}8b-4-6-3[8:3]/7b,6/1,5/2,3,4h[16:7],,,,{16},,,,3!-1-5[8:2]b,,,,,,,,4x,,
{64}4b,3/5,2/6,1h[64:5]/7h[64:5],,,,,{16},3h[8:1]/5h[8:1],,,2/8,8,1b/C,,7,7b/5,,2,2b/4,,
{64}E3f/5-8[8:1],B3,B4,E5,{32}5xh[8:1],,,,2,,2x,,,,,,,,6x/3,,5x,4x,5x,,3x,,6x,4x,,7x,5x,,,,
{64}E7f/4>1[8:1],B6,B5,E5,{32}4xh[8:1],,,,7,,7x,,,,,,,,7x,6x,5x/4x,,3x,,3x,,3x,4x,5x/6x,,7x,,,,
{64}E8f/2-5[8:1],B8,B1,E2,{32}2xh[8:1],,,,8,,8x,,,,,,,,1x/7,,6x,5x,,3x,4x,,2/8x,,1,,1,,,,
{64}E1f/6-3[8:1],B8,B7,E7,{32}6xh[8:1],,,,4,,4x,,,,,,,,2/5b,,1,,8,,4b/7,,,,3/4,,1b/5b,,,,
2-5[16:1]/7-4[16:1],,,,,,,,A2f/A7f,,,,,,,,3/6x,,6x,,6x,,4x,5x,3xh[32:3],,,4x,3x,,,,
{64}E4f/6-1[8:1],B4,B5,E6,{32}6xh[8:1],,,,3,,3x,,,,,,,,3,4x,,,2x,,2,,5x,3x,6x,4x,7x,,,,
2x/8b-4[8:1],,,,7,,,,8x/6b-2[8:1],,,,5,,,,6x/4b-8[8:1],,,,3,,,,4x/1b-5<4[8:5],,,,1,,,,1b/8x,,,,,,,,,,,,,,,,5bh[8:4],,,,,,,,4h[8:2],,,,,,,,
(205){24},E5,B4/B5,E3/E7/C,B2/B7,B1/B8,{16}E1,,,,,,,,,,,,
{1},,,{8}6,7,8,,{16},,,,,,E3,B3,{1}B4,,,{16}E6,E7,E8,,,,,,,,,,,,E3,B3,{1}B4,,,
{8}6,7,8,,{16},,,,,,E3,B3,B4,,,,,,,,,,,,8,,1,,
7-4[8:1],,7h[16:1],,,,3-7[8:1],,3h[16:1],,,,8-4[8:1],,8h[16:1],,,,2,,2>5[8:1],,,,{24}2b/1b,8,7,{16}6,,,,,,
{16}7/3,,7-4[8:1]/3-7[8:1],,,,7/3,,,,,,5/1,,6v1[8:1]/2-5[8:1],,,,2/6,,,,,,3h[8:1],,4h[8:1],,5h[8:1],,6h[8:1],,
8,,8v5[8:1]*v3[8:1],,,,8,,,,,,1,,1<6[8:1],,,,1>4[8:1],,,1,,,E5/B5f/E6,,,,,,,,
2/6,,2-5[8:1]/6-2[8:1],,,,2/6,,,,,,4/8,,3-8[8:1]/7-4[8:1],,,,3/7,,,,,,6h[8:1],,5h[8:1],,4h[8:1],,3h[8:1],,
1,,1-4[8:1]*-6[8:1],,,,1,,,,,,7,,7h[8:2],,,,4,,,2/B6/E6,,,B3f/E4/8,,,,,,,,
2/5,,2,,,,{24}1h[8:1]/2,3,4,{16}5,,,,4/8,,8,,,,{24}1h[8:1]/7,6,5,{16}4,,,,2h[8:1],,4h[8:1],,5h[8:1],,7h[8:1],,
1,,1-6[8:1]*-4[8:1],,,,1,,,,,,5,,5-2[8:1],,,,5-8[8:1],,,5,,,B2/B3/E3f,,,,,,,,
7/4,,7,,,,{24}1h[8:1]/6,5,4,{16}3,,,,5/2,,2,,,,{24}8h[8:1]/3,4,5,{16}6,,,,7h[8:1],,5h[8:1],,4h[8:1],,2h[8:1],,
8,,8>3[8:1]*<5[8:1],,,,8,,,,,,1,,1-5[8:1],,,,8/1,,{12},8,7,{16}6/4,,,2/8,,,5/3,,
C,,,,,,,,,,,,,,,,,,,,E6,,,,E3,,,,E8,,,,
{3}1b-5[8:18],8,2,7,3,6h[3:1],
{8}A1,,7,,7,,7,,6,,6,,5,,5,,
5/4,3,2/5,6,7/3,2,1/6,7,{32}1/8,2,3,4,5,6,7,8,1,2,3,4,5,6,7,8,1b-5[8:1]/C,,,,,,,,,,,,,,,,
{8}1bx/6bx-8[8:1],6,8-4[8:1],,2-5[8:1],,7,,8/3-1[8:1],3,1-5[8:1],,7p3[8:1],,1,,
2-5[8:1]/8,2,5-1[8:1],,7-4[8:1],,3,,1/5-8[8:1],5,8-4[8:1],,{16}4-7[8:1],,,3,,,2,,
{8}8/1-5[8:1],1,6-1[8:1],,{16}4,,,3,,,2/8,,{8}1/7v4[8:1],7,3-8[8:1],,{16}5,,,6,,,1/7,,
{8}8/2-6[8:1],2,4q8[8:1],4,{16}3,,,2,,,1/8,,{8}2/7-3[8:1],7,1,1,{16}5h[8:1],,,4h[8:1]/6h[8:1],,,3/7,,
{8}1,1,1w5[8:1],,1,,3/7,,8-3[8:1],8,3-7[8:1],,1-4[8:1]*-5[8:1],,1,,
3-6[8:1],3,6V42[16:3],,8q4[8:1]*p4[8:1],,8,,6-1[8:1],6,1-5[8:1],,{16}2,,,3,,,4/6,,
{8}5/7-4[8:1],7,4-8[8:1],,{16}1,,,2,,,3/5,,{8}6/4-1[8:1],4,1-5[8:1],,{16}8,,,7,,,6/4,,
{8}5/3p7[8:1],3,5-1[8:1],5,{16}2,,,3,,,4/7,,{8}5b-1[8:1]/6b-2[8:1],,,,{16}3x/8,,6,5x,,3,4x,,
{8}1bqq5[8:4]*pp5[8:4],,,,,,,,{16}3x/6,,4x,5x,{8}3-1[8:1]/6x-8[8:1],,3/6,,2/7,,
3-5[8:1],3,6-2[8:1],,6/1h[8:2],,8,,7-4[8:1],7,3,,{16}2h[8:1]/1h[8:1],,,3h[8:1]/8h[8:1],,,4/7,,
{6}6bx/5,6bx,6bx,{8}3bh[8:2]/4-8[8:1],,4,,2-5[8:1],2,7-3[8:1],,7/4h[8:2],,8,,
1/2-4[8:1],,2x/8b,,8/7-5[8:1],8,1b/7x,,1/2-4[8:1],,2x-6[8:1]/8b,,2x/5,,1b/7b,,
{24}2,3,4,8,7,6,{12}1,1,1,{8}1xw5[8:1],,1,,3/7-1[8:1],7,2-6[8:1],,2/5h[8:2],,3,,
7/4-2[8:1],4,8-4[8:1],,8/1h[8:2],,6,,2-5[8:1]/8-5[8:1],,2/8,,{12}3b,3,3,7b,7,7,
{16}1/8x,,,5/6,,,3/4,,1/8,,,2/4,,,5/7,,3,6,3,6,2,7,2,7,1,8,1,8,{32}1,2,3,4,7,6,5,4,
{8}8bs4-8[8:12]*-4-8[8:12],,,,,,,,,,,,,,,,
2h[8:8]`6h[8:8],,,,,,,,,,,,B3`B7,,,,
4`8h[8:8],,,,,,,,4w8[8:4]b,,,,,,,,
7b/2>5[8:1],2,2/6-2[8:1],6,6/4-1[8:1],,4/8,7,3/6<1[8:1],6,6/2-6[8:1],2,2/8-4[8:1],,8/3,2,
1-3[8:1],1-7[8:1],1-5[8:1],,,,4/8,8,7/3-8[8:1],2,3/6-1[8:1],5,6/2w6[8:1],,2,,
4>1[8:1],4,1-5[8:1]*-6[8:1],,,,4/7,,8<5[8:1],8,5p1[8:1]*>2[8:1],,,,3/8,,
7-3[8:1],7,2-6[8:1]*-5[8:1],,2,,1/7,,2-6[8:1],2,5-8[8:1]*-2[8:1],,5,,7/1,,
2-4[8:1],,2x,1-5[8:1],,1x,2h[8:2],,7-5[8:1],,7x,8-4[8:1],,8x,7h[8:2],,
1-5[8:1],,1x,8-4[8:1],,8x,2h[8:2],,6-1[8:1],,6x,5,,5x,4/6h[8:2],,
{16}2bh[16:3],,,5,,,4/6,,7h[16:3],,,4,,,3/5,,1h[16:3],,,5,,,4/6,,8h[16:3],,,4,,,3/5,,
6,4,6,4,7,3,7,3,8,2,8,2,{32}8,7,6,5,2,3,4,5,{8}1b-5[8:4],,,,,,,,
4/6,4,,4,5x/3h[8:7],,,,,,,5,4x/6h[8:4],5,,,
4,4,,4,5x/3h[8:7],,,,,,,4,{16}3x,4,3,5x,4,5,3x,,
{8}6xh[8:1]/2x-8[8:1],,6h[8:1],,2-4[8:1]/6h[8:1],,6h[8:1],,5-1[8:1]/6h[8:1],,6h[8:1],,2-5[8:1]/7h[8:1],,7h[8:1],,
7-3[8:1],,8,1,2-5[8:1],,1,8,{16}8-4-8[8:2],,,,,,,,E4,E5,E6,E7,E8,E1,E2,E3,
{8}5/E4,5,,5,4x/6h[8:7],,,,,,,4,5x/3h[8:4],4,,,
5,5,,5,4x/6h[8:7],,,,,{16}5,,,5,,,{16}6x,5,6,4x,5,4,6x,,
{8}3xh[8:1]/7x-1[8:1],,3h[8:1],,7-4[8:1]/3h[8:1],,3h[8:1],,5-8[8:1]/2h[8:1],,2h[8:1],,7-3[8:1]/2h[8:1],,2h[8:1],,
4-7[8:1]/1h[8:1],,1h[8:1],,8-4[8:1]/1h[8:1],,1h[8:1],,1x-7[8:1],,7/1x-3[8:1],,3/1x-5[8:1],,1x/8,,
6x-4[8:1],,4,3,2-5[8:1],,5,6,7-4[8:1],,3,2,1-5[8:1],,6,7,
8-4[8:1],,1,1,1-6[8:1]*-4[8:1],,1,,3h[8:1]/7h[8:1],,2h[8:1]/5h[8:1],,{16}3`4,,,3`4,,,3`4,,
{8}2b<7[8:2],,7<4[8:2],,4>1[8:2]b,,6,,7h[8:1],,7h[8:1],,7h[8:2]/1b-5[8:1]b,,,,
6b>3[8:2],,3>8[8:2],,8<5[8:2]b,,5,,4h[8:1],,4/7,,{16}6`5,,,6`5,,,6`5,,
{16}7bh[16:3],,,4,,,5/3,,2bh[16:3]/4,,,5,,,6/4,,8bh[16:3]/5,,,4,,,5/3,,1bh[16:3]/4,,,5,,,6/4,,
3,5,3,5,2,6,2,6,1,7,1,7,{32}2,3,4,5,8,7,6,5,{16}1bw5[8:4],,,,,,,,,,,,,,,,
3bh[8:1]/6bh[8:1],,,,,,4/7-4[8:1],,4,,{24}4,3,2,{16}1x,,1x,,2/5,,3,4,3,,6,5,7<4[8:1],,7,,1-5[8:1],,1,,
8h[8:3],,,,,,4,,4/7,,6,5,6,,3,4,3,,6,5,7,,3,4,2-5[8:1],,2,,6-1[8:1],,,,
3h[8:3],,,,,,{12}8,7,6,{16}4/5,,3,4,2,,8,5,6,,3,4,1,,7,5,6,,4,,3,,
2>5[8:1],,,,8,,,,1q5[8:1],,,,7,,,,8>3[8:1],,,,6qq1[8:3],,,,,,,,,,,,
2b>5[8:1]/8b<5[8:1],,,,2/8,,,,4/7,,6,5,6,,3,4,3,,3,2,3,,3,4,2>5[8:1],,2,,8-4[8:1],,8,,
1b<6[8:1]*>4[8:1],,,,1,,,,5/2,,3,4,3,,6,5,7,,7,8,7,,7,6,7-4[8:1],,7,,1-5[8:1],,,,
8b<5[8:1],,,,3/8,,,,{12}4,3,2,{16}1/8,,7,5,6,,3,4,1,,8,5,6,,3,4,2-5[8:1],,2,,
7bp3[8:1]b,,,,1,,,,8b<5[8:1]b,,,,2,,,,1bp5[8:1]b,,,,3w7[8:2]b,,,,,,,,,,,,
{8}1b/5,1bh[8:2],,{32},2/8,3/7,4/6,{8}5,,8b,8bh[8:2],,{32},7/1,6/2,5/3,{8}4,,2h[8:1],4h[8:1],6h[8:1],8h[8:1],
1b,1bw5[8:1],,1b,,,8b,8bw4[8:1],,8b,,,2h[8:1],6h[8:1],4h[8:2],,
1b,1b,,{32}2b/1b,3/8,4/7,5/6,{8},,8b,8b,,{32}7b/8b,6/1,5/2,4/3,{8},,7h[8:1],5h[8:1],3h[8:1],1h[8:1],
8b,8bw4[8:1],,8b,,,1b,1b-5[8:1],,8/1b,{12},4/8,3/7,{16}2h[8:1]/6h[8:1],,,1h[8:1]/5h[8:1],,,4/7,,
{1}2b-6[8:30]/E1f/B1/B8,,,,
{8}E4,E3,E2,,,,,{16}E7,B6,B5,,,,,,,,,,,,,,,,
,,,,,,,,,,,,,,,,,,,,D5/D1,D6/D2,D7/D3,D8/D4,B8,{32}C,B4,{16},,,,,,
1b-5[4:31]/A7f/D7/D8,,,,,,,,,,,,,,,,,,,,,,,,,,,,,,,,
E
