&title=自分REST@RT
&artist=765PRO ALLSTARS
&first=0.325
&des=CaeruleaP
&lv_5=14
&des_5=CaeruleaP
&inote_5=
(171){4},,,,{1}1p2>7[2:3],
{4},,,,8/1h[4:1],
{8}7,8h[4:1],,7,5,6h[4:1],
,4,{4}5h[4:1],{2}3V57[4:1],
{1}8>7p8[2:3],
{4},,,,1/8h[4:1],
{8}2,1h[4:1],,2,4,3h[4:1],
,5,{4}4h[4:1],6-1[8:1],A6f,
2-4[8:1]*-5[8:1],2,{8}7-4[8:1],5,7,3V58[4:1],
,3,,,{4}1-4[8:1]*<6[8:1],1,
{8}5h[8:1],3,4,2h[4:1],,1-4[8:1],,1/2-5-1[4:1],
,2,,,{4}7-1[8:1]/2-6[8:1],2/7,
7-5[8:1]*-4[8:1],7,{8}2-5[8:1],4,2,6V41[4:1],
,6,,,{4}8-5[8:1]*>3[8:1],8,
{8}4h[8:1],6,5,7h[4:1],,8-5[8:1],,8/7-4-8[4:1],
,7,,,2-8[8:1]/7-3[8:1],3,{4}7/2,
4<7[8:1],{8}4,3,5-2[8:1],8,5,7,
{4}8-4[8:1],{8}8/3,2>5[8:1],,2/6<1[8:1],,6,
{4}5>2[8:1],{8}5,6,4-7[8:1],1,4,2,
{4}1-5[8:1],{8}1/6,7<4[8:1],,7/3>8[8:1],,3,
{4}6<1[8:1],{8}2,3,{4}4v1[8:1],{8}6,7,
{4}8-4[8:1],{8}8/1,2-5[8:1]*-6[8:1],,2,,8,
3h[2:1],,,,,1/2,{4}8-5[8:1]/3-8[8:1],
8/3,1-4[8:1]/6-1[8:1],1/6,{8}8-4[8:1],2,
{4}8,{8}1<6[8:1],4,1,5,4-7[8:1],3,
{4}4/2-5-2[4:1],2,{8},8<5[8:1]/3>8[8:1],,3/8,
{4}B6/E6f/B5,{8}8>3[8:1],5,8,4,5-2[8:1],6,
{4}5/7-4-7[4:1],7,{8},1>4[8:1]/6<1[8:1],,6/1,
{4}E2/E3f/E4,4x/2x<5[2:1],{8}4,3,2,1,
{4}1>4[8:1],{8}6,6<1[8:1],,4w8[8:3],,,,,,,,8/3,
{4}8<5[8:1]/3>8[8:1],
3/8,1>4[8:1]/6<1[8:1],6/1V74[8:3],3-8[8:1],
Cf,6xh[4:1],{8}8<2[4:1],,,8xh[4:1],
,1-5[8:1],,1/8pp5[8:3],,,,,{4}Cf,
3xh[4:1],{8}1>7[4:1],,,1xh[4:1],
,8-4[8:1],,8/1qq4[8:3],,,,,{4}Cf,
5<1[4:1],1>5[4:1],5<1[4:1],
{2}1>5[4:1],{4}2-8[8:1],2/7-3[8:1],
7,{8}2>5[8:1],1,{4}2,{8}7<4[8:1],8,
{4}7p3[8:1],7/2>5[8:1],2q6[8:1],2,
B6/Cf/B3/A3/A6,1<3[4:1],{8}1/5h[4:1],,,7<4[8:1],
,7/8v3[8:1],,8/7<4[8:1],,7/8v3[8:1],,8,
{4}Cf,8>6[4:1],{8}8/4h[4:1],,,2>5[8:1],
,2/1v6[8:1],,1/2>5[8:1],,2/1v6[8:1],,1,
{4}Cf,4>8[4:1],8<4[4:1],4V28[4:1],
{2}8V64[4:1],{4}8-5[8:1]*-4[8:1],8qq1pp8[4:3],
{8},,,,,,,,7b/1b,
6b/2b,{4}5b/3b,{8}2/4,3/5,4/6,5/7,
8-5[8:1],1,8,4,6-1[8:1],5,6,{16}2,2,
{8}3>8[8:1],7,3,{16}6-2[8:1],5,{8}4,6,{4}1>4[8:1],
1/5,8<5[8:1],8/4,{8}1-6[8:1],2,
4-8[8:1],5,,,3V16b[4:1],1-4[8:1],,,,,7/3,
{16}2,2,{8}4-6[8:1],3,4,2,
5-3[8:1],6,5,7>3[4:1],,3<7[4:1],,,1,
2,3,4,8,7/1,6/2,5/3,
{16}2,4,2,4,3,5,3,5,{8}4,7,2,5,
3/6,4,2/5,{16}3,4,{8}2>5-1[4:1],5,{4}2,
7-4[8:1],7b/8,2-5[8:1],2b/1,
8-4-8[4:1],{8}8,2-6-2[4:1],,2,,,7-3[8:1],
1-5[8:1],7,1,{4}8h[4:1],{16}4,7/3,6/2,5/1,
{4}8v3[8:1]/4v7[8:1],8<4[8:1]/4>8[8:1],8/4,Cf,
8<4[8:1],8>4[8:1],8w4b[8:1],8,
{8}1-5[8:1]/2-5[8:1],3,{4}1b/2b,{8}8-4[8:1]/7-4[8:1],6,{4}8b/7b,
{8}1-5[8:1]/8-4[8:1],2/7,{4}8b/1b,{16}3b,6,3,6,2b,7,2,7,
{8}1b-4[8:1],8,1,5,3-8[8:1],4,3,{16}7,7,
{8}6<1[8:1],2,6,{16}3-7[8:1],4,{8}5,3,{4}8<5[8:1],
8/4,1>4[8:1],1/5,{8}8-3[8:1],7,
5-1[8:1],4,,,6V83b[4:1],8-5[8:1],,,,,2/6,
{16}7,7,{8}5-3[8:1],6,5,7,
4-6[8:1],3,4,2<6[4:1],,6>2[4:1],,,8,
7,6,5,1,2/8,3/7,4/6,
{16}5,2,6,4,8,3,7,1,{8}6,6/4,3,3/5,
{4}7V58-6[8:3],{8}7,3h[8:1],,2h[8:1],,1h[8:1],
5,2/6,3/7-3[8:1],4/8,,,{4}B1/B2/E2/A2/D2/A1,
2V41-3[8:3],{8}2,6h[8:1],,7h[8:1],,8h[8:1],
4,7/3,6/2-6[8:1],5/1,,,{4}B8/B7/E8/A7/D8/A8,
{8}6/5,4/7,8,{16}2,1,{8}2,4/3,2/5,1/6,
8-4[8:1]/7-3[8:1],7/8,{4}7b<8[2:1]/8b>7[2:1],,,{1}A7/D8f/A8,
{4},,,,3-5[8:1]*-8[8:1],
3,{8}6-1[8:1],5,6,2<5[4:1],
,2,,,{4}4-1[8:1]*<7[8:1],4,
{8}8,{16}2,8,{8}3,3h[4:1],,5-2[8:1],,5/3-8-4[4:1],
,3,,,{4}6-4[8:1]/3-7[8:1],3/6,
6-4[8:1]*-1[8:1],6,{8}3-8[8:1],4,3,7>4[4:1],
,7,,,{4}5-8[8:1]*>2[8:1],5,
{8}1,{16}7,7,{8}2,6h[4:1],,4-7[8:1],,4/6-1-5[4:1],
,6,,,{4}3-5[8:1]/6-2[8:1],6/3,
1<6[8:1],1/4,8>3[8:1],{8}8,6-1V74[8:3],
,6/2,3,3,{4}2,3/5,
{8}6h[8:7],3-5[8:1],,3,,2-8[8:1],,2,
,7,8-5[8:1],7,{4}8-3[8:1],8,
5>2[8:1],5/8,4<7[8:1],{8}4,2-5V38[8:3],
,2/7,6,6,{4}7,7/1,
{8}2h[8:7],7-1[8:1],,7,,6-4[8:1],,6,
,3,4-1[8:1],3,{4}4-7[8:1],4,
8>3[8:1],{8}8,7,1-6[8:1],4,1,3,
{4}4-8[8:1],{8}4/7,6<1[8:1],,6/2>5[8:1],,2,
{4}1<6[8:1],{8}1,2,8-3[8:1],5,8,6,
{4}5-1[8:1],{8}5/2,3>8[8:1],,3/7<4[8:1],,7,
{4}2>5[4:1],{8}6,7,{4}8<5[4:1],{8}2,3,
{4}4-8[8:1],{8}4/5,6-1[8:1]*-2[8:1],,6>7[8:3],,6,
7h[2:1],,,,,5/6,{4}4-1[8:1]/7-4[8:1],
4/7,5-8[8:1]/2-5[8:1],5/2,{8}4>1[8:1],6,
{4}4,{8}8>3[8:1],5,8,4,5-2[8:1],6,
{4}5/7-4-7[4:1],7,{8},1>4[8:1]/6<1[8:1],,6/1,
{4}E2/E3f/E4,{8}1<6[8:1],4,1,5,4-7[8:1],3,
{4}4/2-5-2[4:1],2,{8},8<5[8:1]/3>8[8:1],,3/8,
{4}E8/E7f/E6,5x/7x>4[2:1],{8}5,6,7,8,
{4}8<5[8:1],{8}3,3>8[8:1],,5w1[8:3],,,,,,,7/3,
6/4,{4}5<4[1:1],
5xh[8:1],6xh[8:1],7bxh[8:1],8bxh[8:1],
1<6[8:1],1/3>8[8:1],{8}3,,,7/8-5[8:1],
,7-2[8:1],,,,3,5,3,
{4}5>2[8:1],5/7<4[8:1],{8}7,,,3/4-1[8:1],
,3-6[8:1],,,,7,8,7,
{4}1/6,2V46[4:1],6-3-1[4:1],A7/D8/A8,
7V53[4:1],3-6-8[4:1],,D2/A2/D3,
{2}1p4[16:3]*<4[16:3],8q5[16:3]*>5[16:3],
{4}7b/8,6/5b,4b/3,2b/1,
1/8h[4:1],7,8/1h[4:1],{8}2,8-3[8:1],
,8/5-8[8:1],,5,,7,2,8,
{4}1h[4:1],2,1/8h[4:1],{8}7,1-6[8:1],
,1/4-1[8:1],,4/7pp1p4[8:3],,,,,{4}3>7[4:1],
7>3[4:1],{2}3<6b[8:1],
{4}7>3[4:1],3<7b[4:1],7>3b[4:1],4w8b[4:3],
{8},,,,,,,,2b/8b,
2b/8b,{4}8b/2b,{16}7,1,5,3,8,2,6,4,
{32}8,7,6,5,4,3,2,1,8,7,6,5,4,3,2,1,{4}8w4b[8:1],8b,
{8}2-5[8:1],1,2-6[8:1],{16}8,7,{8}6/2,{16}1,8,{4}7-4[8:1]/3-8[8:1],
3/7,{16}1,2,3,4,8,1,2,3,7,8,1,2,
{4}3/6-2[8:1],6/4-8[8:1],{16}4/1,8,7,6,{4}5h[4:1],
{32}1,2,3,4,5,6,7,8,1,2,3,4,5,6,7,8,{4}1w5b[8:1],1b,
{8}7-4[8:1],8,7-3[8:1],{16}1,2,{8}3/7,{16}8,1,{4}2-5[8:1]/6-1[8:1],
6/2,{16}8,7,6,5,1,8,7,6,2,1,8,7,
{4}6/3-7[8:1],3/5-1[8:1],{16}5/8,1,2,3,{4}4,
{16}3,5,4,7,5,6,{8}4h[8:1],{16}6,4,5,2,4,3,{8}5h[8:1],
2-6[8:1],6-2[8:1],,,{4}E8/B7/A7,E6/B5/A5,
{16}6,4,5,2,4,3,{8}5h[8:1],{16}3,5,4,7,5,6,{8}4h[8:1],
7-3[8:1],3-7[8:1],,,{4}E2/B2/A2,E4/B4/A4,
{16}8,5,{8}7h[8:1],{16}5,6,{8}4h[8:1],{16}5,3,{8}6h[8:1],{16}2,5,{8}1h[8:1],
{4}7<3[4:1],3>7[4:1],,A7/E7/A6/D7,
{8}4-8[8:1]/3-8[8:1],2,{4}4b/3b,{8}5-1[8:1]/6-1[8:1],7,{4}5b/6b,
{8}4-8[8:1]/5-1[8:1],3/6,{4}5b/4b,{16}2b,7,2,7,3b,6,3,6,
{8}4b-1[8:1],5,4,8,2-5[8:1],1,2,{16}6,6,
{8}7-4[8:1],3,7,{16}2-6[8:1],1,{8}8,2,{4}5<8[8:1],
5/1,4>1[8:1],4/8,{8}5<8[8:1],2>5[8:1],
5,2,1,8,7V52b[4:1],5-8[8:1],,,,,3/7,
{16}6,6,{8}8-2[8:1],7,8,6,
1-7[8:1],2,1,3<7[4:1],,7>3[4:1],{16},,,,5,
6,7,8,4,3,2,1,{8}8,7/1,6/2,5/3,
{16}4,7,3,5,1,6,2,8,{8}3,3/5,6,6/4,
7/2,8,6/1,{16}7,8,{8}6<1-5[4:1],1,{4}6,
3-8[8:1],3b/4,6-1[8:1],6b/5,
4-8-4[4:1],{8}4,6-2-6[4:1],,6,,,3-7[8:1],
5-1[8:1],3,5,{4}4h[4:1],2-6[8:1],
2/3,{8}4-8[8:1],5,4,6h[4:1],,,8b/6,
6/1b,{4}2bpp8[8:5]/6q8[8:5],,,{1}Cf,
{8},,,,2,7,3,6,
{1}2p4q2[8:13]*<4<2[8:13],
,Ch[4:3],
B7/B3/A7/A3,
7q5p7[8:13]*>5>7[8:13],
,Ch[4:3],
B7/B3/A7/A3,
{4}6h[8:1]/B4,6h[8:1]/C,5h[8:1]/B8,5h[8:1]/A8,
4h[8:1]/B6,4h[8:1]/C,3h[8:1]/B2,3h[8:1]/A2,
1x<4[4:1],B2/E3,8x>5[4:1],B7/E7,
{1}7qq8[2:1],
{4}2/E6,3/E7,4/E8,5/E1,
7/E4,6/E3,5/E2,4/E1,
{1}5<4[4:3],
5<4b[4:3],
{4}7bh[4:1],{8}8,{16}6,1,{8}6,5v2[8:1],,5-8[8:1],
,5/1V35-7[8:3],,1,,8h[8:3],,,{4}1h[4:1],
{8}7,8h[4:1],,6-1[8:1],,6/2V84-6[8:3],
,,,,,2h[16:3]/7h[16:3],,,{2}1h[8:3]/8h[8:3],
{8}7/4,6/3,5/2,4/1-4[8:1],
,1,,5/8-5[8:1],,8,,2,
4,3s7s3[8:5],,7h[8:3],{24},,,,,,,,,,,,{12}8,
7,6,2,3,4,{8}7,5,{16}6,4,6,4,
{8}7V51[4:1],1,{4}7,{8}2-7[8:1],8,2,6<5>6[8:5],
,6,,,,,{4}A5/D5/A4,
{8}3,5,2,4,1,3,{12}2,4,1,
5,3,{6}6,{48},,{16}7,6,5,1,2,3,8,7,6,5,
{8}4/3-8[8:1],2,{4}3,{8}5/6-1[8:1],7,{4}6,
{8}2-5[8:1],1,{4}2,{8}7-4[8:1],8,{4}7,
{16}2,5,2,5,3,6,3,6,4,7,4,7,5,8,5,8,
{8}1bw5[8:1],1b,{4}1b,,5-1[8:1]/4-8[8:1],
{1}4/5p4>5[2:3],
,{32}1b/8b,
2/7,3/6,4/5,,,,,,,,,,,,,2b/7b,3/6,{16}4/5,{32},,,,,,,,,,,,3b/6b,
4/5,,,,,,,,,,,,,,,{4}4b-8[8:1]/5b-1[8:1],5/4q5<4[2:3],
{1},,{32}8b/1bh[4:1],
7,6,5,,,,,,,,,,,,,1b/8bh[4:1],2,3,4,,,,,,,,,,,,,{2}7bh[4:1]/4bh[4:1],
2bh[4:1]/5bh[4:1],
{4}8xh[4:3]/E3,E4,E5,E6,
1xh[4:3]/E7,E6,E5,E4,
7xh[4:3]/E2,E3,E4,E5,
2xh[4:3]/E8,E7,E6,E5,
{1}3bqq8[8:5],
7bqq4[8:5],
{8}3h[4:1],1,{4}1b,{8}6h[4:1],8,{4}8b,
{8}2/7,6/3,{4}4b-8[8:1]/5b-7[8:1],5b-1[8:1]/4b-2[8:1],4b/5b,
{8}6-1[8:1],5,6,{16}2,3,{8}4/8-5[8:1],{16}3,4,{4}8/5,
{8}3-6[8:1],7,3,7-2[8:1],4,7,{4}5>2[8:1],
{16}5/1,8,7,6,{8}5<8[8:1],5,{16}1,2,3,4,{8}5/1-6[8:1],1,
{4}1-4[8:1],1,{8}3V58b[4:1],5-2[8:1],,,{4}A8/D1/A1f/D2/A2,
{8}7/3,{16}5,5,{8}2-8[8:1],4,2,3,
1-3[8:1],8,1,7h[4:1],,1h[4:1],{16},,,,3/8,
4/7,{8}6/5h[8:1],6,5,{16}6/1,5/2,{8}3/4h[8:1],3,4,
{16}5,3,5,3,6,4,6,4,{8}8/7,6/5,4/3,2/1,
{4}8-3[8:1],{8}8,4-7[8:1],,4,,8,
8,1,1,2/7,{16}8,7,6,5,1,2,3,4,
{4}1-6[8:1],{8}1,5-2[8:1],,5,,1,
1,8,8,7/2,{16}1,2,3,4,8,7,6,5,
{4}4-8[8:1]/1>4[8:1],1/4,7-2[8:1]/3>8[8:1],3/7,
{8}6b,4b,{4}5bw1[8:1],,Cf,
8<1[2:3],1>8[4:5],{8},,,,,,,,,,,,7h[4:1]/2h[4:1],
,,3/6,3h[4:1]/6h[4:1],,,2-5[8:1]/4-7[8:1],
,2/4,,,{2}8<5[8:1],
{4}4h[4:1],{8}6,5h[4:1],,6,8,7h[4:1],
,1,{4}8h[4:1],{2}3h[4:1],
{8}7h[4:1]/2h[4:1],,,3/6,3h[4:1]/6h[4:1],,,2-5[8:1]/4-7[8:1],
,2/4,,,{2}8<5[8:1],
{4}4h[4:1],{8}6,5h[4:1],,6,8,7h[4:1],
,1,{4}8h[4:1],{2}2V48[4:1],
{4}7-5[8:1]*-4[8:1],7,{8}2-5[8:1],4,2,6V41[4:1],
,6,,,{4}8-5[8:1]*>3[8:1],8,
{8}4h[8:1],6,5,7h[4:1],,8-5[8:1],,8/7-4-8[4:1],
,7,,,{4}2-8[8:1]/7-3[8:1],7/2,
2-4[8:1]*-5[8:1],2,{8}7-4[8:1],5,7,3V58[4:1],
,3,,,{4}1-4[8:1]*<6[8:1],1,
{8}5h[8:1],3,4,{16}2,5,{8}3,2/6,{16}7,4,{8}6,
7-4[8:1]/3-8[8:1],6/2,{4}7b/3b,,Cf/5b<4b[2:5],
E
