&title=Heaven's ray
&artist=rinahamu/KOTONOHOUSE/PURE 100%
&first=0.245
&des_5=miwa
&lv_5=14
&des=miwa
&inote_5=(84){4}5/4>5[1:1],,{2}4,
3>6[1:1],3,
{8}2<7[8:5],,,4,{4}4,3,
{12}1h[12:1],7,5h[12:1],3,1h[12:1],7,5h[12:1],3,1h[12:1],7,{6}3/5h[6:1],
{8}4b,{16}8,7,8,5,4,5,{8}6/2-5[16:1],5/4-7[16:1],2,4,
8,1,{16}1,2,1,4,{8}2/7-4[16:1],5-2[16:1],7,5,
8h[8:1],{16}1,2,8-6[16:1],7,1-3[16:1],2,{8}8p4[16:1],1q5[16:1],8,1,
{12}6,7,8,2/1q5[4:1],3,4,{4}5<1[6:1]/1>3[0.7143##0.7143],Cf,
(168)6b-8[16:1],1/6-1[8:1],2/6-4[8:1],3/6-2[8:1],
6-1[8:1]*-3[8:1],6-2[8:1],6-8b[8:1]*-4b[8:1],6,
2/6h[4:1],{8}3,5,1,4,{4}1/2h[4:1],
8>4[4:1],{8}8/5h,{16}7,6,{4}5,6/3b-1[8:1],
{8}3-8[8:1],7,3-7[8:1],7,3-6[8:1],6,3,5h[8:1],
{24}8,1,{12}2,,{4}4b/3bh[4:1],{24}1,8,{12}7,,{4}6b/5b<4[8:13],
{1}5/6h[1:1],
{4},,5-1[8:1],5/3,
3b-1[16:1],8/3-8[8:1],7/3-5[8:1],6/3-7[8:1],
3-8[8:1]*-6[8:1],3-7[8:1],3-1b[8:1]*-5b[8:1],3,
7/3h[4:1],{8}6,4,8,5,{4}8/7h[4:1],
1<5[4:1],{8}1/4h,{16}2,3,{4}4,3/6-8[8:1],
{8}6-1[8:1],2,6-2[8:1],2,6-3[8:1],3,6,4h[8:1],
{24}1,8,{12}7,,{4}5b/6bh[4:1],{24}8,1,{12}2,,{4}3b/4b>5[4:3],
{1}4/3h[4:3],
{8}7/3,6/2,{16}5/1h[8:1],4,3,2,1x/5x,8/4x,7/3x,6/2x,{4}5/1xh[4:1],
{8}4,2/5,3/6,{16}4,6,5,7,{8}4h[8:1],6b,{16}5,3,
4,2,{8}5h[8:1],3b,{16}4,6,5,7,{8}4,5/4-8[8:1],2,
3b/4b,3,2/7,{16}1,7,8,6,{8}1h[8:1],7b,{16}8,2,
1,3,{8}8h[8:1],2b,{16}1,7,8,6,{8}1,8/1-5[8:1],3,
2b/1bx,4,3,{16}2-5[8:1],1,2,1,{8}2,7bxh[8:1],{16}8-3[8:1],7,
8,7,{8}8,5bxh[8:1],{16}4-8[8:1],6,5-1[8:1],3,{8}4,5,4,
4b/5b,5/6,6/7h[8:1],{16}4,3,2,1,{8}8h[4:1]/4h[8:1],{16},,3,2,
1,8,{8}4h[8:1]/7h[4:1],{16},,5,6,7,8,{8}5-7[8:1]/1-3[8:1],{4}5/1,
{8},4/8,4/8,{16}3,3,6,1,{8}1,2/6,{16}7,7,
5,1,{8}1,4/8,{16}3,3,5,7,{8}7-3[8:1],6/8,7,
2,5/1,5/1,{16}6,6,3,8,{8}8,7/3,{16}2,2,
4,8,{8}8,5/1,{16}6,6,4,2,{8}2-6[8:1],3/1,2,
7,8h[4:1]/4h[8:1],{16},,3,2,1,8,{8}7/5h[4:1],{16},,7,8,
1,2,{8}5/3h[4:1],{16},,4,5,6,7,{8}8/4,1/5h[4:1],8,
7,6h[4:1]/2h[8:1],{16},,4,5,6,7,{8}4/8h[4:1],{16},,6,7,
8,1,{8}2/4h[4:1],{16},,2,1,8,7,{8}6,{4}8h[4:1],
4bx-2-8-6-4[1:2],,,E4,
E3,,,E2,
4>4[1:2],,,E1,
E8,,,E7,
4x-2[4:1],2-8[4:1],{2}8-6[4:1],
{4}4-6[4:1],6-8[4:1],{2}8-2[4:1],
{4}4h[4:3],E3,E2,E1,
5h[4:3],E7,E8,E1,
{8}1-6[0.7143##0.1786],2,{4}8-3[0.7143##0.1786],2/1-5[0.7143##0.1786],7/8,
1/2,{8}3,2,8/1h[2:1],7,6,5,
8-3[0.7143##0.1786],7,{4}1-6[0.7143##0.1786],7/8-4[0.7143##0.1786],2/1,
8/7,{8}6,7,1/8h[2:1],2,3,4,
{4}2,7/4,8,5/2,
E8/B7/B8,3/6,B1/E2/B2,3>6[0.3571##2.5],
{8},,,,,,,E7,
E6,E5,E4,E3,E2,E1,(870){4},
(168),Ch[4:7],{8},,,,,,,,,8,
{4}7,
6h[1:1],Ch[4:7],{8},,,,,,,,,5,
{4}6,
{2}8h[1:1],{8}E5,E4,E3,E2,
{4}E1,{8}2,3/1,{4}1/3,{8}4,3/5,
{4}3/5,{8}6,5/7,{4}5/7,{8}7,8/6,
{4}8/6,{8}1,2/8,{16}2/8w4[0.7143##0.5357],7,6,5,4,3,2,1,
{32}8x,,,,,Cfh[16:1],,,,,,,,,,,{4}6/2v5[4:1],2b/5v8[4:1]*v8[4:1],
{16}8>1[16:1],1?>2[16:1],2?>3[16:1],3?<4[16:1],{4}4>8b[4:1],{16}8>1[16:1],1?>2[16:1],2?>3[16:1],3?<4[16:1],{4}4>8[4:1]*>2<8[4:1],
8p3[4:1],{8}5,6,7,8,1,2-5[8:1],
5-1[8:1],1-6[8:1],{4}6<3[4:1],{8}4h[8:1],{16}5x,6x,7x,8x,1x,2x,
{4}3x/8x-4[8:1],8-3[8:1]*-5[8:1],8-4[8:1],8-2[8:1]*-6[8:1],
8v2[8:1]*v3[8:1],8-4[8:1],8v5[8:1]*v6[8:1],8w4[4:1],
{2}8b,{4}3h[4:1]/1>4[4:1],4<7[4:1],
7>1[4:1],{8}4,3,{4}2,5b/6b,
4/3v8[8:1],3/6v1[8:1],6/2v5[8:1],2/7-2[8:1],
7/3-8[8:1],3-1[8:1]*p7[8:1],3-6[8:1],3-5[8:1]*q7>1[4:1],
,,4/2-5[8:1],8/2-7[8:1],
2/4>6[4:1],5h[4:1],{16}E7,E8,E1,E2,{4}E3f,
6/2v5[8:1],2/7v4[8:1],7/3v8[8:1],3/6-3[8:1],
6/2-4[8:1]*-6[8:1],2-5[8:1],2-8[8:1]*-6[8:1],2-7[8:1],
2,1>4[4:1]/8<5[4:1],{2}A8/D1/A1,
{4}8/1,{8}5-1[4:1]/3-7[4:1],6/2,{2}1pp8[0.3571##0.3571]/7qq8[0.3571##0.3571],
(84){8}A8f,3h[8:1],{16}4,5,6,7,{8}8-4[0.3571##0.1786],1-5[0.3571##0.1786],2-6[0.3571##0.1786],3-7[0.3571##0.1786],
{4}4-8[0.3571##0.1786],{32}3,4,{16}3h[16:3],2,1,8,7,{8}6-2[0.3571##0.1786],5-1[0.3571##0.1786],4-8[0.3571##0.1786],
{4}3-7[0.3571##0.1786],{32}5,4,{16}3h[16:3],2,1,8,7,{8}4/5>2[0.3571##0.1786],5/6-2[0.3571##0.1786],6/7>2[0.3571##0.1786],
3/7,{24}3q8[8:1],,4,,5,,6p1[8:1],,5,,4,,3,,4<6[12:1],,6-2[12:1],,2<8[12:1],,8-4[12:1],
,,,,,,,,,,,,{4}3-1[16:1]/6-8[16:1],{8}3/6,{16}1,8,
1,8,,,{4}7/2,{8}1/2-4[16:1],8,2/7,{16}6,5,
6,5,,,{4}3/6,{8}1/6-8[16:1],4,5/6,{16}8x/1>4qq1[1:1],7/2,
6/3,5/4,{8}5b/4b,{16},,,5pp8[16:7],
E
