&title=るろうらんる
&artist=ちから
&first=0.03
&lv_7=る
&des_7=小鸟游残光
&inote_7=
(156){4},,,,,,,4/8h[4:1],
{24}4,3,2,1,8/4b,7,6,5,4/8b,3,2,1,8/4b,7,6,5,4/8b,7b/3,{8}6b/2,8-6[8:1]/4-2[8:1],
7/3,8/4-1-5[8:1],,4/7-3[8:1],7>2[8:1],7<4[8:1],7,7,
{24}1q5[8:1],2,3,7p3[8:1],6,5,{8}1,7,{32}2,1,8,7,6,5,4,3,{8}2v5[8:1],{32}3/6,4/7,{16}5/8,
{8}2/1<6[8:1],1p5[8:1],1v3[8:1],1,1,7>2[8:1],{24}3,4,5,6,{48},,,,{16}7,
6,7,6>4[8:1],2,3,2,6,1,8-5[8:1],3,3x,3,3x,3,3x,
2,2v5[8:1],1,1<6[8:1],2,2,1,1,4b,3b,{8}2b,{16}7b,6b,5b,4b,
{8}3b/2b-6[8:1],{32}3>8[8:1],4,{16}5,{8}2b,3b,{16}7,7,6,6,5,5,4,4,
{8}3-8[8:1],7-4[8:1],3-6[8:1],7-2[8:1],3>8[8:1],7<4[8:1],3,7,
{16}3b,2b,1b/7h,5b,,,5b,6b,7b/1h,3b,,7bqq5b[8:1]/3bqq1b[8:1],,,,,,,,,7,
6,{8}5,{16}5,4,{8}3,{16}3,2,{8}1,
{16}1,1,1,1,1,8,{8}7,{16}7,8,{8}1,{16}5,6,{8}7,
{16}5/4,5/4,5/4,5/4,5/4,3,{8}2,{16}7,6,{8}5,{16}2/5,6/3,{8}7/4,
{16}8,8,8,8,8,1/5,{8}2/6,{16}7/3,8/4,{8}1/5,{16}1/5,8/4,7/3,6/2,
{8}1/5,{16}7/3,7/3,{8}7/3-1-5[8:1],8-4-7[8:1],3,8V24[8:1],{4}5-7-4-8[4:1],
{8},,6-2[8:1],3-8-4[8:1],6>3[8:1]*<1[8:1],3,{4}6z2z6[4:1],
{8},,1V35[8:1],8v6-1[8:1],1V75[8:1],8,{4}3v2V41-3[4:1],
{16},,,,8,7,6,5,4,3,2,1,8/5,1/6,{8}2b/7b,
{16}5/1,8/4,{8}7b/3b,2,{16}2,3,{8}6,{16}6,7,{8}1/5,7/3,
6/2,8/4,2/6-3[8:1],5,6/2-7[8:1],1,2/6v4[8:1],5,
6/2v8[8:1],1,{4}2/6w2[8:1],6<8[8:1]*>4[8:1],6z2[8:1]*-2[8:1],
6,{24}5,6,5,6,,,4,3,4,3,,,4,5,4,5,,,7,
2,7,2,{96},,,,,,,,{32}1,8,1,8,2,7,2,7,3,6,3,6,4,5,4,5,4,3,2,1,8,7,6,5,
4/8,1,2,3,4,5,6,7,{8}8b<5[8:1]/4b>1[8:1],3/7,{4}4bq8[8:1]/8bq4[8:1],8bV63[8:1]/4b-2-7[8:1],
8b/4b,{16}1,1,5,5,2,2,6,6,3,3,7,7,
2,2,6,6,1q5[8:1],1,5q1[8:1],5,{2}1>8[16:3],
{16}1-5[8:1]/5-1[8:1],6/2,7/3,8/4,{4}1b-3-5[8:1]/5b-7-1[8:1],{8},,8/4-2[8:1],{16}8,7,
{8}6/4-8[8:1],6-1[8:1],4-2[8:1],6-4[8:1],4,{16}6<8[8:1],1,{8}1,{16}6>3[8:1],4,
{8}4,{16}6,3,2,1,8,7,{8}6-8[8:1],4/3,6bv4[8:1],{16}2,3,
{8}6-1[8:1],{16}2,3,{8}6,{16}2,3,{8}4b/7b,{16}1/2,1/2,8/3,7/4,{8}6b/5b,
{16}7/8,6/1,5/2,3b/4bv5-7[8:1],,3,3x,3,3x,3,3x,3,3x/4,4,5,5,
6,6,7,7,7,7,6,5,4,3,2/6,3,4,5,6/2,5,
4,3,2/6,7/3,4/8,7/3,2-7-2[4:1]/6-3-6[4:1],5/1,{8}4/8,2b/6b,A7/A3,A2/A6,
3-8[8:1],7-4[8:1],3-6[8:1],7-2[8:1],3>1[8:1],7<5[8:1],3,7,
{32}8,1,2,3,{16}4b/6b,{32}1,8,7,6,{16}5b<7[8:1]/2b>4[8:1],,,2/5,2/5,,,2b-6[8:1],3,4/1b-5[8:1],8,
{8}7/2b>4[8:1],1b<7[8:1],2b,1b,{32}2b,3b,4b,5b,{8}6b,8-6[8:1],{16}3,4,
{8}8-2[8:1],{16}3,4,{8}8<6[8:1],{16}4,5,{8}8>2[8:1],{16}4,5,{8}8<5[8:1],4,
4<7[8:1],2,8<5[8:1],2,4<7[8:1],2,8,{16}2,2,
3,3,4,4,{8}5<8[8:1],{24}1,2,3,{8}4,{16}4,4,{8}8/4V25[8:1],7-4[8:1],
4,7-2-6[8:1],2,7/1-4[8:1],1,{16}1/6,6,{8}6-3[8:1],7-2[8:1],
6,7,{16}5-8[8:1],5,4-1[8:1],4,{8}5,4,7<4[8:1],{16}3,3,
{8}7>2[8:1],{16}3,3,{8}7-4[8:1],{16}3,3,{4}7/3-8[8:1],{16}3b/7b,6b,{8}5b<8[8:1],
{16}2b,3b,{8}5b/4bv1-3[2:1]*v7-5[2:1],{24},,,,,,,,,,,,,,,,,,{6}4-2[8:1],
{12}4,4/8-6[8:1],,8,{6}8/2-5[8:1],{12}2,2/7-3[8:1],,7,
{6}7/4v1[8:1],{12}4,4/2-6[8:1],,2,{6}2/8>3[8:1],{12}8,8/7qq5[8:1],,7,
{6}7/1-3[8:1],{12}1,1/7-4[8:1],,7,{6}7/2-6[8:1],{12}2,2/7-1[8:1],,7,
{6}7/4v6[8:1],{12}4,4/8v3[8:1],,8,{6}8/5v4[8:1],{12}5,5/6-1[8:1],,6,
{4}6/3,{12}2-5[8:1],,2,{6}2/8-3[8:1],{12}8,8/1-6[8:1],,1,
{6}1/7-4[8:1],{12}7,7/2-7[8:1],,2,{6}2/6-3[8:1],{12}6,6/1-4[8:1],,1,
{6}1/5-8[8:1],{12}5,5/4-2[8:1],,4,{6}4/5<7[8:1],{12}5,5/4>2[8:1],,4,
{6}4/5-8[8:1],{12}5,5/4-2-6[8:1],,4,{6}4/7-5-1[8:1],{12}7,7/2,{48},,,,,,,,{16}8/2,
7/3,{8}6h[8:1]/4h[8:1],{24},,,5b/4b,6b/3b,7b/2b,{8}1b/8b-6-2[8:1],2b-5[8:1],5b-3[8:1],3b-7[8:1],
{16}2,2,2,2,{8}2,{16}6b/3b,6b/3b,{8}7b/4b,{16}7b/4b,7b/4b,{8}5b/2b,{16}5b/2b,5b/2b,
{8}6/3,{16}1,8,{8}1,{16}5,4,{8}5,6b/3b,{16}6b/3b,7b/2b,{8}8b/1b,
7/2-5[8:1],6-1[8:1],2,6,{16}2b,4b,4b,4b,6b,4b,4b,4b,
2,2,2,2,{8}1/3,7/5,{16}7,6,5/1h,4,3/7h,2,1/5h,8,
7/3h,6,5/1h,4,3/6h,2,1/5h,2,3,4,5/1h,6,7/3h,8,1/5h,2,
3/7h,4,5/1h,6,7/3h,8,1/5h,2,{4}3bw7[8:1],3b<5[8:1]*>1[8:1],
3b-7[8:1]*s7[8:1],3b,{16}3,4,3,2,3,4,3,2,
3,4,5,6,{8}7b/2b,{16}8,1,{8}7/2-4[8:1],1-5[8:1],2,1,
8-4[8:1],7-5[8:1],8,7,4-2[8:1],5-1[8:1],4,5,
{16}2-6[8:1],2,1-7[8:1],1,{8}2,1,{16}3,3,4,4,6,6,5,5,
{8}5<8[8:1],4>1[8:1],5,4,{16}7,6,{8}5/4,2/5,{16}2,3,
{8}4/5,{16}1b/8b,1b/8b,8b/1b,8b/1b,{8}7b/2b,{16}2-4[8:1],2,1-5[8:1],1,{8}2,1,
{16}8,7,8,7,{24}6,5,6,5,6,5,{16}6,7/5,{8}8/4,{16}3,2/4,{8}1/5,
{16}7,7,7,7,{8}8/6,{24}8/6,1/5,2/4,{8}3-7[8:1],7-5-3[8:1],{4}3-1-7[8:1],
{8},6w2[16:1],8/4,6,{16}8/4,7/5,{8}6,{16}1/5,2/4,{8}3,
{16}6-3[8:1]/2-7[8:1],3/7,8/4,1/5,{8}6/2,A7/A3,{16}1b-5b[8:1],2b,3b/8b-4b[8:1],7b,{8}6b/1b,8b,
{32}1b,2b,3b,4b,5b,6b,7b,8b,{8}1b/Cf/B7f/B3f/B1f/B5f,{16}1,8,4,5,1,8,4,5,8,7,
3,4,2,1,5,6,7/5,8/4,{8}1bv6[8:1]/3bv6[8:1],8/4,{4}1b/3b,
{8}8bv3[8:1]/6bv3[8:1],1/5,{4}8b/6b,{16}2,1,3,4,2,1,3,4,
{24}3,4,5,2,3,4,1,2,3,7,{96},,,,,,,,{32}7,6,5,4,3,2,1,8,{8}7/3s7[8:1],{24}6/2,1/5,8/4,
{8}3/7,2-4[8:1],{16}1-5[8:1],2,2,1,{8}1,{16}8-4[8:1],1,2,3,{8}8,
{16}2v5[8:1],2,1-6[8:1],1,{8}2,1,{32}2b,3b,{16}4b,{8}7-4[8:1],3-8[8:1],7-2[8:1],
3-6[8:1],7<4[8:1],3>8[8:1],7b,3b,{16}5,5,{8}4b/6b,{16}3,3,
3,4b/2b,,,6,6,6,7b/5b,,,8/1,8/1,8/1,7b/2b,,,2/6b,
3/7b,4/8b,5/1b,6,7,8,1,2/6b,3/7b,4/8b,5/1b,6,7,8,1,
2/6b,3/7b,4/8b,5/1b,6,7,8,1,{24}6b-2b[8:3]/2b-4v5b[8:3],1b/5b,{12}8b/4b,{4},,{16},{64},{192},{32}6bw2b[8:1],
7b/5b,{16}8b/4b,
E
