&title=Ad astra per aspera
&artist=Rabbit House
&first=0
&des=Lillet
&lv_5=14
&inote_5=(197)
{1},{32},
{8}6-4[8:1],,64,3-5[8:1],,63,7-4[8:1],,37,2-5[8:1],,27,8w4[8:1],,8,,
3-5[8:1],,35,6-4[8:1],,36,2-5[8:1],,62,7-4[8:1],,72,1w5[8:1],,1b,,
65,6,67,6,64,6,68,{16}1,5,{8}2,2,24,2,28,2,26,37,
{16}48,7,6,5,41,2,3,4,{32}58,7,6,5,4,3,2,1,8,7,6,5,4,3,2,1,{1}8b/4bw8[4:3],
{4},2b/6b,
{8}36,4,5,3,24,1,24,35,6,37,6,3h[8:1]/5,4h[4:1],,1h[4:1],,
4,25,36,5,24,1,24,35,6,37,6,3h[4:1]/5,6,7,8h[4:1],,
5,74,6,4,75,8,75,64,3,62,3,6h[8:1]/4,5h[4:1],,8h[4:1],,
4,63,4,75,8,75,64,5,3b/6b,2b/7b,{16}8h[8:1],1,2,3,
54,,2,4h[8:1],,3,5h[8:1],,4,6h[8:1],,5,7,,7,,
56,,7,5h[8:1],,6,4h[8:1],,5,3h[8:1],,4,2,,2,,
81,,3,1h[8:1],,2,8h[8:1],,1,7h[8:1],,8,6,,6,,
{4}8-4[8:1],8-6[8:1]*-2[8:1],8w4[8:1],8,
{16}45,,7,5h[8:1],,6,4h[8:1],,5,3h[8:1],,4,2,,2,,
43,,2,4h[8:1],,3,5h[8:1],,4,6h[8:1],,5,7,,7,,
18,,6,8h[8:1],,7,1h[8:1],,8,2h[8:1],,1,3h[8:1],,5h[8:1],,
3,2,4,6,7,5,{32}1,2,3,4,{16}5b/6b,,,1b/8b,,,3b/4b,,
45,,7,5h[8:1],,6,4h[8:1],,5,3h[8:1],,4,2,,2,,
43,,2,4h[8:1],,3,5h[8:1],,4,6h[8:1],,5,7,,7,,
18,,6,8h[8:1],,7,1h[8:1],,8,2h[8:1],,1,3,,3,,
{4}1-5[8:1],1-3[8:1]*-7[8:1],1w5[8:1],1,
{16}54,,2,4h[8:1],,3,5h[8:1],,4,6h[8:1],,5,7,,7,,
56,,7,5h[8:1],,6,4h[8:1],,5,3h[8:1],,4,2,,2,,
81,,3,1h[8:1],,2,8h[8:1],,1,7h[8:1],,8,6h[8:1],,4h[8:1],,
7,5,6,2,4,3,6,4,5h[8:1],,{24}1,2,3,{8}4/5,{32}5,6,7,8,
{1}1b/5b,2h,3h,4h,5h,6h,7h,8h,
{8}5b,{4}5h[4:7]/1,1,2,2,3,3,4,{8}4,4h[8:15]/5,{4}5,5,6,6,7,7,8,{8}8,
2/8b,2,2,26,2,24,2,25,6/4b,6,6,62,6,68,6,64,
6h[8:1]/5,5,5,3h[8:1]/4,4,4,7h[8:1]/6,6,6,2h[8:1]/3,3,3,12,38,4b/7b,56,
4h[8:1]/7h[8:1],,56,{16}2,5,,7,4,,36,,2,1,{8}
3h[8:1]/8h[8:1],,47,{16}5,3,,4,6,,37,,8,1,{8}
2h[8:1]/7h[8:1],,36,{16}5,2,,4,7,,36,,5,2,
6h[8:1],,3,7h[8:1],,4,8h[8:1],,3,7,2,6,1-5[8:1],5,8,4,
{8}1h[8:1],,5,{16}2,5,,7,4,,36,,2,1,{8}
3h[8:1]/8h[8:1],,47,{16}5,3,,4,6,,37,,8,1,
{8}2h[8:1]/7h[8:1],,3h[8:1]/6h[8:1],,{16}1h[8:1]/2h[8:1],,,3h[8:1]/8h[8:1],,,47,,7h[8:1]/8h[8:1],,,1h[8:1]/6h[8:1],,,25,,1h[8:1]/8h[8:1],,,2h[8:1]/7h[8:1],,,36,,
{4}2-5[8:1]/7-4[8:1],
{8}2b/7b,,{16}4,5,3,,62,,7,8,{8}
6h[8:1]/1h[8:1],,52,{16}4,6,,5,3,,62,,1,8,{8}
7h[8:1]/2h[8:1],,63,{16}4,7,,5,2,,63,,4,7,
3h[8:1],,6,2h[8:1],,5,1h[8:1],,6,2,7,3,8-4[8:1],4,1,5,
{8}8h[8:1],,4,{16}7,4,,2,5,,63,,7,8,{8}
6h[8:1]/1h[8:1],,52,{16}4,6,,5,3,,62,,1,8,
{8}27,27,36,45,67,81,23,45,{16}6,3,5,4,7,2,5,4,
{32}8,7,6,5,4,3,2,1,8,7,6,5,4,3,2,1,{4}8>4[8:1]*<4[8:1],8bw4[4:5],,,,,,,
{8}6,,4h[8:3]/7,,,5,36,,4,5,3h[8:3]/6,5,,4,25,,
{16}7h[16:3],,,5h[16:3],,,4h[16:3],,,2h[16:5],,,3,,3,,
2h[16:3],,,4h[16:3],,,5h[16:3],,,7h[16:3],,,8,,1,,
{4}8h[2:3]/2,,,,1h[2:1],,,{8},1-5[23.2#128:1]/8-4[23.2#128:1],
{4}1h[4:5]/8h[4:5],,,,,,{8}18,1h[8:1]/8h[8:1],,,1b/8b,
,46,{16}2,5,,7,4,,36,,2,1,{8}
3h[8:1]/8h[8:1],{16},26,,47,,35,4,5,3,6,2,7,1,8,{8}
2h[8:1]/7h[8:1],,36,{16}5,2,,4,7,,36,,5,4,{8}
3h[8:1]/7h[8:1],,46,{16}5,3,,4,6,,37,,1,28,{8}
7h[8:1]/3h[8:1],,
2h[8:1]/6h[8:1],,{16}5h[8:1]/3h[8:1],,,1h[8:1]/7h[8:1],,,26,,
4h[8:1]/6h[8:1],,,2h[8:1]/8h[8:1],,,37,,3h[8:1]/5h[8:1],,,2h[8:1]/6h[8:1],,,17,,
{4}8w4[8:1],8b,
{16}5,4,6,,37,,2,1,{8}
3h[8:1]/8h[8:1],,47,{16}5,3,,4,6,,37,,8,1,{8}
2h[8:1]/7h[8:1],,36,{16}5,2,,4,7,,36,,5,2,
6h[8:1],,3,7h[8:1],,4,,48,3,7,2,6,1-5[8:1],5,8,4,
{8}1,,5,{16}2,5,,7,4,,36,,2,1,{8}
3h[8:1]/8h[8:1],,47,{16}5,3,,4,6,,37,,8,1,
{8}7h[8:1]/2h[8:1],,
3h[8:1]/6h[8:1],,{16}5h[8:1]/2h[8:1],,,4h[8:1]/7h[8:1],,,18,,{16}3b,6,4,5b,2,7,4b,5,
{32}1b,2,3,4,5,6,7,8,1,2,3,4,5,6,7,8,
{4}1w5[8:1],1b<1[4:5]*>1[4:5],,,,,,,
{8}5,,4h[8:3]/6,,,5,36,,3,4,25,{16}6,5,,5,{8}6,{16}47,,6,5,
{8}6,6,35,24,{16}31,2,3,4,15,8,7,6,{8}53,3,46,57,{16}68,7,6,5,48,1,2,3,
4b/6b,,8,7,8,7,8,,4b/6b,,1,2,1,2,1,,
2b/8b,7,6,5,4b/8b,1,2,3,4b/6b,7,8,1,2b/4b,5,6,7,
{16}8b/4b,,5,5,1,2,3,4,7,5,6,4,5,3,4,2,5,6,7,8,14,5,6,7,84,1,2,3,48,7,6,5,
43,,2,4,3,4,1,,56,,7,5,6,5,8,,37,6,5,4,73,2,1,8,74,3,2,1,84,3,2,1,
{8}48,48,73,73,62,62,51,51,34,67,13,45,68,23,57,18,
{16}2,7,4,5,1,8,3,6,2,7,4,5,1,8,3,6,2,3,4,5,62,7,8,1,26,5,4,3,26,1,8,7,
{8}6-4[8:1],,64,3-5[8:1],,63,7-4[8:1],,37,2-5[8:1],,27,8w4[8:1],,8,,
3-5[8:1],,35,6-4[8:1],,36,2-5[8:1],,62,7-4[8:1],,72,1w5[8:1],,1b,,
65,6,67,6,64,6,68,{16}1,5,{8}2,2,24,2,28,2,26,37,
{16}48,7,6,5,41,2,3,4,{32}58,7,6,5,4,3,2,1,8/4-8[8:1],7,6,5,4,3,2,1,{1}4bw8[4:3]/8b>8[49.25#2:1]*<8[49.25#2:1],,
E
