&title=星綴りのアルケミスト
&artist=Lime
&first=0.27
&des= 夢物語
&lv_5=14+
&inote_5=(225.00){1},{4},,,1,1>5p8[2:3],,,,,7,6h[2:1],,,8,{8}1,3,2,4,{4}3h[2:1],B5,B8,6h[2:1],B1/B2,{24}E3,B3,B4,E5,,,{4}Ch[4:5],,,4,3,2,
{8}1b/B6/B5/E6f,,1>6[2:1],7,7,,6>1[2:1],,7,,8,,8,,8<3[2:1],2,2,,3-5-8[8:3],,2,,1,,1,,2,,3,,4z8[2:1]/5s1[2:1],,,,,,,,,,6,,6h[4:3],,{16}A5,E5,B4,B3,E3,B2,B1,E1,{4}A8f/E8/B8,,5,6<1[4:1],,2,3<6[4:1],,7,8<5[4:1],,3,4>2[4:1],5,6,7<5[4:1],8,{8}1,1,{4}2-5[4:1],1,8,7-4[4:1],,,
{4}2bq5[1:2]/7b,,,,,,E8,,,E7,,{8}E6,B5,E5,,{4}E4/B4,E3/B2,E2,E1,{8}E6,B5,{4}B4/E4/B3,E6,E7,B2/B3/E3,E7,E8,B8/E1/B1/Ch[64:1],,{8}2,3,4h,,,,7,6,{4}54,3,2,1h,8h,,{8},,4,5,3,6,{4}27,1>4[4:1],8,8b,,{8}5s1[8:4]/4z8[8:4],,,,,,,,
{8}2>5[4:1]/7,,,,6,7,8/2>5[4:1],,,,6,7,8/2>5[4:1],,5p1[4:1],,6,,8,,,,7,8,7-5-3[8:3],,2,,1,,8,,7,,6,5,6-1[4:1],,4,,3,,2-5b[4:1],,8,,7,,6h[4:1],,,,6,5,4,3,3v8[8:1],,,,7h[4:1],,,,2,3,4,5,5-8[8:1],,4,4,3,,2,,1,,8h[4:1],,,7,6,5,4h[4:1],,6,3,5s1[8:4],4z8[8:3],,,,,,,
{8}2,4,3,5,3h[8:1],,43,2,5,3,6>3q8[4:3],,2h[4:3],,,,,,,,,,{16}7,8,7,8,{8}7,7,1,1,6,6,3,,3h[4:1],,6,7,8b-4[8:1],,81,2b-6[8:1],,21,8b-3[8:1]*-5[8:1],,8b,,,,
{8}7,5,6,4,6h[8:1],,56,7,4,6,3<6p8[4:4],,7h[4:3],,,,,,,,{4}7,6,5b/B8/E1/B1f,,{8}E6,B5,B4,,,,E6,B5,{4}B4/E4/B3,7,8,1,2,3,4-8b[4:5],,{8}3,5,{2}4h[4:3],,{8},,,,1,2,3,4,5,6,
{16}3b/7b,,,,73,6,5,4,3,2,1,8,7v4[8:1]/3,,,,2,,2,,3,,,,4b/8b,,,,48,3,2,1,8,7,6,5,{8}4-8[8:1],,3,3,2,,
{16}18,,,,8,7,6,5,1,2,3,4,56,,,,6,7,8,1,5,4,3,2,17,6,5,4,8,7,6,5,4,3,2,1,{8}6h[8:3]/8,,8,8,6,6,3b>6b[2:1],,5h[2:1],,,,,,2,,3/5h[2:1],,{24}3x,2x,1x,8x,7x,,,,,6x,7x,8x,1x,2x,,,,,8x,1x,2x,3x,4x,5x,,,,1x,8x,7x,6x,5x,4x,,,,{16}
1b/8b,,,,2,1,2,,2-5[8:1],,1,,8b,,,,7,8,7,,7-4[8:1],,8,,1bpp5[8:3],,,,5,,6,,7,,,,7bqq4[8:3],,,,4,,3,,2,,1,,
{16}1b,,,,1,2,3,4,56,7,8,1,2/4-8[8:1],,,,5,,5,,6h[2:1],,,,8b,,,,8,1,2,3,6,7,8,1,2-6[8:1],,,,3,,3,,4,,,,6h[4:1]/1,,,,1,2,3,4,5-1[8:1],,7,,5,,,,8,7,6,5,4s8[2:1]*z8[2:1],,3,,4b,,,,,,,,{8},,E8,E2,E7,E3,E6,E4,4x/5x,,3-5[8:1],,2,,1-4[8:1],,8,,7,,6v1[4:1]/3v8[4:1],,,,,,2h[2:1]/7h[2:1],,,,,,{4}8bw4[4:5]/1bw5[4:5],,,,,,,,Ch[4:3]f,,,,
{8}18,2,3,4,3v8[4:1],,43,5,6,7,1,2,3qq8b[4:3]/5h[4:2],,,,,,B1/B2/E2,,,,2,1,12,8,7,6,5>2[4:1],6,7h[4:1],,1,8,7,6,5pp8[4:3]*pp8[4:3],4,3h[4:1]/5,,,,B6/B7/E7,,1,2,3,4,3>8[4:1],4,5,6,7v4[4:1],,8,,1,,2,3,4-8-6-4[4:3],3,2h[4:1],,,,B7/B6/B5,,,,{16}6,5,6,5,{8}6,6,5-8[8:1],4,3,2-5[8:1],1,8,7-4[8:1],,B1/E2/B2,,3b>3>1b[4:5],,,,,,E1,,E8,,E7,,E6/B5/B6f,,,,,,
{8}6,,5,,4,,3x/1x,,,,1x-5[2:1],,,,7,,1qq5[1:1],,{16}E3,B3,{8}E4,,,4,,{32}A4,B4,{16},,,{32}A3,B3,{16},,,{32}A2,B2,{16},,,{8}8<3[2:1],,,,3,,1>8[1:1],,,,{12}E4,B4,B5,{1}E6,
{8}7,7,6,5,43,,,3,21,,,,18,,8h[1:1]/2>7[8:4],,,,,,,,7x<2b[8:2],,,,,,{16}1b/8b,,,,7,1,7,,7-4[8:1],,2,,3b,,,,2,1,2,,2-5[8:1],,1,,8bqq5[4:2],,,,4,,3,,2,,2,,2b-4-6[8:2],,,,6,,7,,8,,1,,
2b/6b,,,,2,1,8,7,6p1b[4:1]/5,4,3,2,1p4b[4:1],,,,3x,,2x,,2x,,,,4b/8b,,,,8,1,2,3,4-8>1b[4:1]/5,6,7,8,1-5>4b[4:1],,,,6,,7,,8,,,,1b/8b,,,,1,2,3,4,58,7,6,5,41,8,7,6,5,4,3,2,1,82,73,46,5bs1[8:3]*z1[8:3],,,,,,,,,,,,{8}E2,E8,E3,E7,E4,E6,5/4-2[8:1],,54,6,7-5[8:1],,7/1-3[8:1],,41,5,6-1[8:1],,6b/4b-8[8:1],,47,6,5-1[8:1],,3b-8[8:1]/5b,,37,6,5,,1b/8b,18,27,27,{16}3,6,3,6,3,6,4,5,4,5,4,5,{32}4x,3x,2x,1x,8x,7x,6x,5xs1b[32:29],{1}4bxz8b[8:7],{2},
{4}6h[1:1]/4,,,E1,E2,E3,45,4,2,8h[4:1],,81,8/1h[1:1],,,E1,E8,E7,6h[2:1]/4,3,2,1h[4:1]/Ch[2:1],,{8}1,2,{16}5b,,3,4,3,,2-6[8:1],,8,,2-4[8:1],,7,,2<7[8:1],,6>3b[8:1],,2,,6,,1,,1b,,7,8,7,,6-8[8:1],,4,,6,,1-5[8:1],2,3,4,1-7[8:1],,4,,1,,3,,4b-1[8:1],,5,,6,,7b-4[8:1],,8,,1,,2b-7[8:1],,3,,4,,5,,6,,7,,{24}2,3,4,5,6,7/1x,2x,3x,4x,5x,6x,7x,8x/2,3,4,5,6,7,{4}8b-4[8:1]/1b-5[8:1],8b/1b/Cf,
