&title=YURUSHITE (LeaF Remix)
&artist=LeaF
&first=0.05
&lv_5=14
&des_5=BЯeath DeconstЯuct
&inote_5=
(140){4},{1},{4},,{24}2x-6b[12:1],
1x,8x,7x,6x,5x,
{32}4b/2b>2V46pp1qq2[8:37],Cf,{1},{4},,,{16},,,{1}4bh[8:23],
{8},,,,,,,,,,,,,,,,3xh[8:3],
4,5,6,4h[8:3],5,6,7,
5h[8:3],6,7,8,6h[8:3],7,8,1,
7h[8:3],8,1,2,6xh[8:3],8,7,5,
5h[8:3],7,6,4,4h[8:3],5,3,5x,
{2}4h[4:1]/5bx<7[8:1],2h[4:1]/8x<6[8:1],
5h[4:1]/4>2[8:1],7h[4:1]/1>3[8:1],
{4}4h[4:1]/5<7[8:1],5x,2h[4:1]/8<6[8:1],8,
5h[4:1]/4>2[8:1],4,{8}7h[4:1]/1>3[8:1],8,{4}1,
4h[4:1]/5<8[8:1],5,2h[4:1]/1<6[8:1],1,
5h[4:1]/4>1[8:1],4,7h[4:1]/8>3[8:1],8,
4h[8:1]/5<8[8:1],5/4,2h[8:1]/1<6[8:1],{8}3/1-4[6:1]*p6[4:3],2,
{1}1b,
{8}5<8[8:1],5x/4x,3,2,1>4[8:1],1/8,7,6,
5<8[8:1],5/4,3,2,1>4[8:1],8,{4}1/7,
{8}5<8[8:1],5/4,3,2,1>4[8:1],1/8,7,6h[16:1],
5<8[8:1],{16}4x,3,{8}2,2,{16}1s5[8:1],2x,3,4,{4}1/5x,
{8}3>8[8:1],5/4,6/3,7,7<4[8:1],1/8,2/7,3,
3>8[8:1],5/4,6/3,7,7<4[8:1],8/1,{4}7/4w8[8:1],
{1}4b,
{16}B1,B2,B3,B4,B5,B6,B7,B8,{2}Cfh[4:1],
{16}2x,2x,8,8,4,4,6,6,1-5[8:1],5,1,5,{4}1b,
{16}7,7,8,8,5,5,4,4,1,1,3,3,5,5,2,2,
{32}6bV47[8:1]/1bxV38[8:1],5x/2x,{16}4x/3x,{48},,,,,,,,,,,,,,,,,,{12}7x/8xh[6:1],6,5,3/4h[6:1],2,1,
{4}7h[8:1]/8h[8:5],{8}6h,5,{4}4h[4:1],{48}1x,2x,3x,4x,5x,6x,7x,8x,1x,2x,3x,4x,
{4}5b/8b,{32}8x/1x,7,6,5h[32:5],,,,,1x,2,3,4,2x,3x,4x,5h[32:1],{4}2b-6[8:1],
{32}2b,Cf,,,,,,,{8}1x/7x-5[8:1],8,7/1-3[8:1],8,1/7-5[8:1],8,
7/1-3[8:1],8,1/7-5[8:1],8,7/1pp3[16:3],8,{4}1/7h[16:3],
6b/2b,{8}8/2-4[8:1],1,2/8-6[8:1],1,8/2-4[8:1],1,
2/8-6[8:1],1,8/2-4[8:1],1,2/8<6[8:1],1,{4}8/2-5[8:1],
{8}2/7x-4[8:1],8,7/2-5[8:1],1,2/7-4[8:1],8,7/2-5[8:1],1,
2/7-4[8:1],8,7/2-5[8:1],1,7qq5[16:3]/2pp4[16:3],8,{4}7/2,
6b/3b,{8}6/3-8[8:1],4,3/6-1[8:1],5,6/3-8[8:1],4,
3/6-1[8:1],5,6/3-8[8:1],4,3/6-1[8:1],5,{4}6/4x-8[8:1],
{8}4/5-1[8:1],6,5/4v7[8:1],3,4/5v2[8:1],6,5/4-8b[8:1],3,
{4}4b/5bh[4:1],{8}B3/E3,E7/B6,Cfh[8:3],{16}E6,E5,{4}E4,
5h[8:15],{8}3,3,{32}B4,B5,,,,,{16}6h[16:3],,,,,{4}6,
{8}4,4,{16}3,,,3,,,{8}4h[2:3],
{4}5,{8}6,6,{32}B5,B4,,,,,{16}3h[16:3],,,,,{4}3,
{8}5,6,{16}4,5,4,5,{4}4h[4:1],
{1}C,
{2}1>1[2:5],E8,
E6,E4,
E2,Ch[4:1],
{4}1h[4:1],2h[4:1],3h[4:1],4h[4:1],
5h[4:1],6h[4:1],7h[4:1],8h[4:1],
1-3[8:1],1/7-1[8:1],7/5-7[8:1],5/3-5[8:1],
3/8<4[4:1],4>8[4:1],{2}8<8V64b[12:5],
{24},,,,,,1x-5b[8:1],8x,7x,6x,5x,4x,{2}3b/1b-7-2-6-3-5>4-6-3-7-2-8[1:4],
,,,,{1}4bh[8:13],
{4},,,E5fh[8:1],
5xh[8:1]/4x>1[8:1],{8}6/4,7,{4}7h[4:1]/8>3[8:1],8,
4h[8:1]/5<8[8:1],{8}3/5,2,{4}2h[4:1]/1<6[8:1],1,
4h[8:1]/3>8[8:1],{8}5/3,6,{4}6h[4:1]/7>2[8:1],7,
5h[8:1]/6<1[8:1],{8}4/6,3,{32}3x/2<7b[8:1],4x,{16}5xh[16:3],,,{4}2,
6xh[8:1]/5x>2[8:1],{8}7/5,8,{4}8h[4:1]/1>4[8:1],1,
3h[8:1]/4<7[8:1],{8}2/4,1,{4}1h[4:1]/8<5[8:1],8,
3h[8:1]/2<7[8:1],{8}4/2,5,{4}5h[4:1]/6x<1[8:1],6,
{8}7h[8:1],6h[8:1],5h[8:1],4h[8:1],{4}3h[4:1],2h[4:1],
{16}1x<5[4:1],8<5[16:3],7<5[8:1],6>5[16:1],,,,,,,{8}3,4>6[2:1],5,
{4}4b/5h[8:1],{8}6<4[2:1],6,{4}5h[8:1],4>6[2:1],
5h[8:1],{8}6<3[2:1],5,{4}4h[8:1],3>5[2:1],
4h[8:1],{8}5<3[2:1],5,4,4x,3>5[2:1],3,
{4}4h[8:1],{8}5<4[2:1],5,{4}4h[8:1],{8}4>6[2:1],4,
{4}5h[8:1],{8}6<4[2:1],6,{4}5h[8:1],{8}4>6[2:1],4,
{4}5h[8:1],{8}6<4b[2:1],6,{4}5h[8:1],{8}6,7,
{4}8b/E5/E4/A4/B4f,6b/E2/E3/A2/B2f,4b/E1/E8/A8/B8f,2b/E6/E7/A6/B6f,
1h[8:1]/5b<8[8:1],{16}5x/1x,2,3h,4,{4}5h[8:1]/1<6[8:1],{16}1x/5x,4,3h,2,
{4}5h[8:1]/1bh[8:1],{16}1/5,6/2,7h/3h,8/4,{4}1h[8:1]/5h[8:1],{16}5x/1x,8/4,7h/3h,6/2,
{4}1h[8:1]/5b<8[32:3],{32}5x/1x,2,3,4,1,2,3,4,{4}5h[8:1]/1>4[32:3],{32}1x/5x,6,7,8,5,6,7,8,
{8}1/5h[8:1],3h[8:1],1h[8:1],7h[8:1],{4}4h[2:1],8-5s1b[1:2],
{1}8bh[1:2],
E
