&title=セレナーデ
&artist=なとり
&first=-1.49
&des=Aqua,Ruby,and Violet
&lv_6=13+
&inote_6=(137)
{1},
{8},,,,68,71,8-4[8:1]/2,13,
{16}4b,,,,3,5,,6,4,,3,,25,,6,,
{16}47,,3,,2h[4:1]/5,,,,1,,8,,73,,6,,
{16}5/1h[4:1],,,,8,2,,1,7,,8,,37,,1,,
{1}2h[16:8]/6h[16:4],
{8}3/5<1[4:1],,3,,3,,3,4,
{8}3h[4:1],,1,,46,,3,5,
{8}4>8[4:1],,7,,7,,7,8,
{8}6h[4:1],,2,,4,5,3,,
{8}6/4V28[4:1],,6,,6,,6,5,
{8}6h[4:1],,8,,53,,4,5,
{8}4,,73,,26,,1<2[4:2]/5h[4:3],,
{8},,,,,,26,,
{16}1-4[8:1]/5-8[8:1],,,,1b/5b,,,,{24}3,,5,3,,5,{16}4h[8:1],,8,,
{16}2-5[8:1]/6-1[8:1],,,,2b/6b,,,,{24}8,,2,8,,2,{16}6h[8:1],,1,,
{16}3-8[8:1]/7-4[8:1],,,,3b/7b,,,,{24}1,,7,1,,7,{16}3h[8:1],,8,,
{16}1qq1[16:5],,2,,3h[8:2],,,,,,,,84,,3,,
{16}26,,7,,48,,3,,{24}2,,5,2,,5,{16}1,,2,,
{16}37,,6,,15,,2,,{24}3,,8,3,,8,{16}4-8[8:1],,5,,
{16}6-3[8:1]*-1[8:1],,,,6,,,,24,,1,,57,,8,,
{8}6-8[8:1]/2-8[8:1],,6-4[8:1]/2-4[8:1],,62,,5h[4:1],,
{16}8-5[8:1],,,,6,,,,47,,6,,2,3,4h[8:1],,
{16}1-4[8:1],,,,3,,,,52,,3,,7,6,5h[8:1],,
{16}1<5[4:1],,,,5>1[4:1],,,,1V75[4:1],,,,5V31[4:1],,,,
{16}1s5[16:4],,,,,,,,,,73,,26,,15,,
{16}3,,6,5,7,,7,5,6,,26,,73,,84,,
{16}6,,3,4,2,,2,4,3,,73,,26,,15,,
{8}6z2[4:1],,2z6[4:1],,4h[4:1],,,,
{8}5qq5[16:4]*pp5[16:4],,,,,,3,,
{16}4bv2[8:1]/8bv6[8:1],,,,4b/8b,,,,3h[16:1],4,,6h[16:1],5,,3,,
{16}5b^8[8:1]/1b^4[8:1],,,,1b/5b,,,,7h[16:1],5,,3h[16:1],5,,8,,
{16}1-4[8:1],,2,,5-8[8:1],,6,,2-5[8:1],,3,,6-1[8:1],,7,,
{16}3-8[8:1],,,,3b/5b,,,,6h[16:1],1,,2h[16:1],5,,3,,
{16}4bv1[8:1]/8bv5[8:1],,,,4b/8b,,,,2h[16:1],8,,7h[16:1],5,,6,,
{16}4bw8[8:1],,3,5,4b,,,,2^5[8:1]/6^1[8:1],,,,,,,,
{16}1h[16:2]/3h[16:2],,,4h[16:2]/5h[16:2],,,7h[16:2]/8h[16:2],,,2h[16:2]/6h[16:2],,,3h[16:2]/5h[16:2],,,4h[16:3]/8h[16:3],
{8},,3,3h[4:1],,1,1<4[4:1]/5qq4[4:1],,
{24},,,,,,,,,,,,1b-4[8:1],,,,,,1/5v2[8:1],,,6,,,
{8}8-5[8:1],,8/4v7[8:1],3,1-4[8:1],,5v2[8:1],6,
{8}7^4[8:1],8,3^6[8:1],2,1b-4[8:1],,1/5v2[8:1],6,
{8}8-5[8:1],,4v7[8:1],3,2-5[8:1],2,1-6[8:1],1,
{8}8-3[8:1],8,7-4[8:1],7,1b-4[8:1],,1/5v2[8:1],6,
{8}8-5[8:1],,8/4v7[8:1],3,1-4[8:1],,5v2[8:1],6,
{8}7^4[8:1],8,3^6[8:1],2,1b,2,35,3,
{16}6,4,,3,5,,2,,57,,6,,24,,3,,
{8}3v2[8:1]/7v8[8:1],,3v4[8:1]/7v6[8:1],,3>5[8:3]/7>5[8:3],,,,
{8},,3h[8:1]/4,5,6h[8:1]/5,4,3h[8:1]/5,7,
{8}2h[8:3]/8,1b,1b,1b,3-5[8:1],,6h[4:1],,
{16}4,8,,6,2-6[8:1],,,,1-5[8:1]/2,,,,8-4[8:1]/1,,,,
{8}8/7^2[8:1],,3^6[8:1]/7pp2[4:6],,3pp6[4:5],,,,
{8},,,,,,,,
