&title=†DOOF†SENC†
&artist=Kobaryo
&first=-0.13
&lv_5=14.8
&des_5=Pagasus,"The Hell on Earth"
&inote_5=
(200){4},{1},,{4}5-1-3<7[2:3]/1-5-7>3[2:3],
{1},{4},,,7s3V57[2:3]/3s7V13[2:3],
{1},{4},,,5q8V24[2:3]/1q4V68[2:3],
{1},{4},,,{16}1,
8,1,8,1,8,1,8,1,8,1,8,
1,8,1,8,1,8,1,8,1,2,3,4,{24}5,6,7,8,1,2,
3,4,5,6,7,8,{8}6b/1b,6,6,6/2b,6,6,
6/3b,6,6,6/1b,{16}6,1b,{8}6,6/1b,6,
6,6,6/2b,2,2,2/8b,2,2,
2/7b,2,2,2/6b,{16}2,6b,{8}2,2/6b,2,
2/6b,6b,{16}2,6,3,7,4,8,5,1,4,7,3,6,
2,5,1,4,1,3,1,2,1,3,1,4,1,5,1,6,
1,7,1,7,1,7,2h,7,3h,7,4h,7,5h,7,6h,7,
8,7,6,7,8,7,6,7,8,7,6,7,8,7,6,5,
4,3,2,1,{4}8<7-4[2:1]*>1-4[2:1],,,,5-8[0.9##0.15]*-2[0.9##0.15],
{8},5w1[0.45##0.15],{4},{2}5,
{16}6,5,{8}6,{16}6,5,{8}6,
{16}6,5,{8}6,{16}7,4,{8}7,{16}7,3,{8}7,{16}7,2,{8}7,
{16}3,4,{8}3,{16}3,4,{8}3,{16}3,4,{8}3,{16}3,5,{8}2,
{16}2,6,{8}2,{16}2,7,{8}2,{16}2,7,2,6,3,5,4,5,
4,5,4,5,{8}4>2[8:1],5,6,7<5[8:1],8,1,
2<8[8:1],3,4,5>3[8:1],6,7,8b-4[8:1],1b-5[8:1],
8b,1b,6-4[8:1],7,8,1-7[8:1],2,3,
4-2[8:1],5,{24}A6/D7,A7,D8,A8,D1,A1,{4},{24}8bw4[8:1],7b,6b,1b,2b,3b,
{4}4b,{8}6,6,{16}6,B3/A3,{8}6,{16}6,E2/B1,{8}6,
{16}6,E3/D3,{8}6,{16}6,E4/D4,{8}6,{16}6,A1/B1,{8}6,{16}6,E3/D3,{8}6,
6,B6f,{4},{16}3,E7/D7,{8}3,{16}3,A7/B7,{8}3,
{16}3,A6/B6,{8}3,{16}3,D8/E8,{8}3,{16}3,E6/D6,{8}3,{16}3b,D7/E7,{8}3b,
{24}7/3b,6,5,4,{12},{16}3,4,3,2,3,4,3,2,3,4,3,2,
3,4,3,2,3,4,3,2,3,4,3,2,{8}3h[16:1],3h[16:1],
{32}A3,D3,A2,D2,A1,D1,{16},6,5,6,5,{8}6,{16}6,6,{8}6,6,
{16}6,6,{8}6,{16}6,7,8,1,4,3,2,1,8,7,6,5,
7,6,5,4,{4}3pp7V13[2:3]/7pp3V57[2:3],{1},{4},,,E8/B8/B7,
E4/B4/B3,{8}B3,B4,
B5,B6,7,6,5,4,{16}3,2,1,8,
{4}7,{8}4-8[8:1],3,2,1,,8-4[8:1],
7,6,{4},{8}3x/E8,4x/E1,5x/E2,6x/E3,
7x/E4,8x/E5,{4}1-6[8:1]*-4[8:1],1,{8}A5,B5,
C,B1,8,1,8,1,{16}1/5,2/6,3/7,4/8,
{4}5b/1b,{16}4,5,4,5,3,6,2,7,1,8,1,8,
1,8,2,7,3,6,4,5,4,5,3,4,3,4,3,4,
3,5,2,6,1,7,1,8,1,8,2,8,3,8,4,8,
4,7,4,6,4,5,4,5,4,5,4,5,{24}4,5,6,7,8,1,
4,3,2,1,8,7,{4}6,{16}1,8,1,8,2,7,2,7,
3,6,3,6,4,5,4,5,4,6,4,7,4,8,3,7,
2,6,1,5,2,6,3,7,4,8,5,1,4,8,3,7,
2,5,4,5,4,6,3,6,3,7,2,7,2,8,1,8,
{24}1,2,3,4,{12},{24}7,6,5,4,3,2,1,8,7,6/4,3,2,{12}4h/1h[4:1],5h,6h,
7h,8h,,{24}2,3,4,5,6,7,8,1,2,3/5,6,7,{12}5h/8h[4:1],4h,3h,
2h,1h,,{24}3,2,1,8,7,6,5,4,3,2/8,7,6,{12}8h/5h[4:1],1h,2h,
3h,4h,,{24}3,2,1,8,7,6,5,4,3,2/8,7,6,{12}8h/5h[4:1],1h,2h,
3h,4h,,{24}7b,6,5,4,3,2,1,8,7,6,5,4,1b,2,3,4,5,6,
7,8,1,2,3,4,8b,7,6,5,4,3,2,1,8,7,6,5,{32}4,3bx,2bx,1bx,8bx,7bx,6bx,5bx,
4bx,3bx,2bx,1bx,{8},{16}8,1,8,1,8,1,7,1,8,2,7,1,
8,2,{8}8,{4}1bh/8bh,4bh/5bh,{8}1bh/8bh,4bh/5bh,
{4}2bh/7bh,{8}6/4-1[8:1],6,6/4x,6,6/1x-4[8:1],6,
1x/6,6,6/4x-1[8:1],6,6/4x,6,6/1x-4[8:1],6,
6/1x,6,6,2,2/6x-3[8:1],2,2/6x,2,
2/3x-6[8:1],2,2/3x,2,2/6x-3[8:1],2,2/6x,2,
2/3x-6[8:1],2,3x/2,2,2,7,7/3x-6[8:1],7,
7/3x,7,7/6x-3[8:1],7,7/6x,7,7/3x-6[8:1],7,
7/3x,7,7/6x-3[8:1],7,7/6x,7,7/3x-6[8:1],7,
{4}7/3x,4bh/5bh,1bh/8bh,{8}4bh/5bh,1bh/8bh,
{4}3bh/6bh,{8}4-8[8:1],5,{4}4,6-2[8:1],
6b,{8}3-1[8:1],7-5[8:1],3,7,4>2[8:1],7,
{4}4,{8}8-6[8:1],4-2[8:1],8,4,7-5[8:1],3-1[8:1],
7,3,6-4[8:1],2-8[8:1],6,2,{16}5,5,{8}5,
{16}4b,5b,4b,5b,{4}4b,{8}4/5,6,7/8,1,
2/3,4,5/6,7,8,1/2,3,4,
{16}5b,5b,5b,5b,{8}5b,4,3/2,1,8/7,6,
5/4,3,{4}2bs6v5[2:1]/1b-5qq4[2:1],,,,1v6q3[2:3]/5v2q7[2:3],
{1},{4},,,3v1>6[2:3]/7v5<2[2:3],
{1},{4},,,2z6V41[2:3]/6z2V85[2:3],
{1},{4},,,1q5pp2[2:3]/5q1pp6[2:3],
{1},{4},,,{8}6b/1b,
6,6,6/2b,6,6,
6/3b,6,6,6/1b,{16}6,1b,{8}6,6/1b,6,
6,6,6/2b,2,2,2/6b,2,2,
2/7b,2,2,2/6b,2,2/6b,2,2/6b,
2/6b,6b,{16}3b,4,3,4,{8}3,{16}6b,5,6,5,{8}6,
{16}1b,8,1,8,{8}1,{16}5b,4,6,4,5b,4,6,4,{8}5b,
{4},{24}3b,4,5,6/3b,{16},,,{48},{24}6b,5,4,{4}3/6b,
{24}1b,2,3,4/1b,{16},,,{48},{24}8b,7,6,{4}5/8b,{8}4b/5b,5/4b,
{4}5b/4,{8}1-6[8:1],2-5[8:1],1,2,,7V13[8:1],
3v8[8:1],7,,5-1[8:1],6,5,7<5[8:1],3>1[8:1],
7,3,6-1[8:1],7,6/5-2[8:1],4,5/6<1[8:1],7,
6/5>2[8:1],4,{16}5/8,7,6,5,{24}1/4,8,7,6,5,4,3/6,7,8,1,2,3,
{4}4b,{8}5-2[8:1],6-1[8:1],5,6,,3V57[8:1],
7v4[8:1],3,,1-5[8:1],2,1,3>1[8:1],7<5[8:1],
3,7,2-5[8:1],3,2/1-6[8:1],8,1/2>5[8:1],3,
2/1<6[8:1],8,1,{16}4,5x,3,6x,2,7,{8}1bh[8:1],8bh[8:1],
{4},{8}1-4[8:1],8-5[8:1],1,8,,3V17[8:1],
7v2[8:1],3,,5b-1[8:1],6,5,3<5[8:1],7>1[8:1],
3,7,4-1[8:1],3,4/5-8[8:1],6,5/4>1[8:1],3,
4/5<8[8:1],6,{16}5/2,3,4,5,{24}6/1,2,3,4,5,6,7,8,1,2,3,4,
5/1,2,3,4,5,6,{8}7bx,1h,2h,3/4,,6b/5b,
7h,8/1,,4/5,3h,2h,1/8,7h,
6/5,4/3,{4}8b/1b,1b/8b,{8}8b-5b[8:1],1b-4b[8:1],
8b,1b,{4}Cfh[24:0],{8}8/4,2/6,,4bh/5bh,
1bh/8bh,3bp8pp5[8:15]/7bp4pp1[8:15],
