&title=2分19秒
&artist=豚乙女
&first=0
&des=2分08秒
&lv_5=13
&des_5=2分08秒
&inote_5=
(140){4},{1},,{4},,,{8}4b,
3,8-6[8:1],{16}1,8,{8}3-7[8:1],2,{4}5,
{8}6,6,7-5[8:1],3,4-8[8:1],2,{4}4,
3-1[8:1],{8}6,7,8-4[8:1]*-6[8:1],6,{4}8,
6-8[8:1],{8}3,2,1-5[8:1]*-3[8:1],3,{4}1,
{8}4,3,8-6[8:1],{16}1,8,{8}3-7[8:1],2,{4}5,
{8}6,6,7-5[8:1],3,4-8[8:1],2,{4}4,
{8}2b,{16}4,3,{8}8,1,7,6,{16}3,5,3,5,
4h[8:1]/2h[8:1],,,4h[8:1]/2h[8:1],,,{8}3/5,{4}3-5[8:1]/5-7[8:1],3/5,
8bpp7[4:1],5,4-1[8:1],{8}4,6,
{4}7<5[8:1],1h[4:1],3,2pp6[2:1],
8,8,{2}1-4[8:1],
1-6[8:1],{8}7,7,8,1,
3/6,2,{4}1-3[8:1],4-8[8:1],4,
{8}1/7,6,{4}5-7[8:1],8-4[8:1],8,
3h[8:1],{8}3,4,2h[8:1],8,{4}1h[4:1],
6h[8:1],{8}6,5,7h[8:1],1,8,2,
3b-5[8:1],6,{4}7,{8}8-4[8:1],6,,,6-4[8:1],
3,{4}2,{8}1-5[8:1],3,,,8h[4:1],
4,3,2,7h[4:1],3,2,1,
{4}6-4[8:1],1-5[8:1],8-6[8:1],8,
{8}1-5[8:1],5pp4[8:3],,,{4}1,{8}7,8,
1-5[8:1],5pp4[8:3],,,{4}1,{8}7-3[8:1],2,
{4}1-6[8:1],8-4[8:1],8,2h[4:1],
{16}5,4,{8}6,3/5,{16}4,5,{8}3,5,{16}6,4,6,4,
{8}8b,{16}5,6,{8}1h[8:1],8,,7h,,2b,
{16}4,3,7,5,{8}6h[8:1],2,,3h,4,6,
1b,{16}4,3,{8}5h[8:1],1,,6h,,7b,
{16}5,6,4,8,{8}1,{16}2,6,{8}2-5[8:1],8/4-8[8:1],,,4b,
{16}1,3,{8}2h[8:1],8,,7h,,6b,
{16}1,8,2,8,{8}1-6[8:1]*-4[8:1],3b/7,{16},,,,5,3,5,3,
{8}6,5h[8:1],8,1h[8:1],7h[8:3],5h[8:1],,4h[8:1],
{16}8,,,5/7,,,{8}2/4,{2}1/8,
{8}2b-4[8:1],1,7-3[8:1],8,{16}5h[16:3],,,1,,,{8}8,
7,6-8[8:1],{4}1-5[8:1],{16}1,,,7<4[8:1],,,{8}1,
{4}2-8[8:1],5-1[8:1]/2-4[8:1],5<4[4:1],5,
{8}6-8[8:1],7,{4}5h[4:1],1-5[8:1]*-3[8:1],1,
7b-5[8:1],2-6[8:1],{16}4h[16:3],,,8,,,{8}1,
2,3-1[8:1],{4}8-4[8:1],{16}8,,,2>5[8:1],,,{8}8,
{4}7b-1[8:1],{8}4-8[8:1]/7-5[8:1],2,{4}4>5[4:1],4,
{16}3b-1[8:1],,,3,,,{8}4h[8:1],8-4[8:1]*-6[8:1],5/3,{4}8,
2b-7[8:1],6-3[8:1],{16}4/6,,,2,,,{8}1-5[8:1],
7/3-8[8:1],1,{4}3,{16}6-8[8:1],,,5-1[8:1],,,{8}3,
{4}4-2[8:1],4/7qq3[8:3],{16}1h[8:1],,,1h[8:1],,,{8}1-5[8:1],
2-4[8:1],1,{4}2,{16}7h[16:3],,,5,,,{8}6,
{4}7-4[8:1]/5-1[8:1],5/7,{16}2h[8:1]/8h[8:1],,,3h[8:1]/7h[8:1],,,{8}5>2[8:1],
1/7-4[8:1],5,7,1,{16}3h[16:3],,,2,,,{8}4-8[8:1],
3b/7-5[8:1],4>2[8:1],7,4,6pp2[4:1],8h[8:1],{4}6,
{16}8,,,5/7,,,{8}2/4,{4}8/1-5[8:1],{8}7,6,
2b,{16}5,4,5,4,{8}7b,{16}3,6,4,5,2b,6,4,5,
{8}1b,{16}5,4,5,4,8b,3,6,4,5,3,7b,4,5,4,
{8}6b,{16}4,5,4,5,{8}3b,{16}5,4,6,4,8b,1,8,1,
6b,4,5,4,5,4,7b,4,8h,1h,8h,1h,7h,2h,6h,3h,
{1}4h[1:1]/5h[1:1],
{4},,,,7b-2[8:1],
3-6[8:1],{16}3/5,,,7,,,{8}8-4[8:1],
2/6-1[8:1],8,{4}6,{16}3-1[8:1],,,4-8[8:1],,,{8}6,
{4}5-7[8:1],5/2pp6[8:3],{16}8h[8:1],,,8h[8:1],,,{8}8-4[8:1],
7-5[8:1],8,{4}7,{16}2h[16:3],,,4,,,{8}3,
{4}2-5[8:1]/4-8[8:1],2/4,{16}7h[8:1]/1h[8:1],,,6h[8:1]/2h[8:1],,,{8}4<7[8:1],
8/2-5[8:1],4,2,8,{16}6h[16:3],,,7,,,{8}5-1[8:1],
6b/2-4[8:1],5<7[8:1],2,5,3qq7[4:1],1h[8:1],{4}3,
{16}8b,,,2/4,,,{8}5/7,{4}1/8-4[8:1],{8}2,3,
{4}6b-3[8:1],2-7[8:1],{16}2/8,,,6,,,{8}5-1[8:1],
3/7-4[8:1],5,{4}7,{16}2-4[8:1],,,1-5[8:1],,,{8}7,
{4}8-6[8:1],8/3qq7[8:3],{16}5h[8:1],,,5h[8:1],,,{8}5-1[8:1],
6-8[8:1],5,{4}6,{16}3h[16:3],,,1,,,{8}2,
{4}3-8[8:1]/1-5[8:1],1/3,{16}6h[8:1]/4h[8:1],,,7h[8:1]/3h[8:1],,,{8}1<6[8:1],
5/3-8[8:1],1,3,5,{16}7h[16:3],,,6,,,{8}8-4[8:1],
7b/3-1[8:1],8<6[8:1],3,8,2pp6[4:1],4h[8:1],{4}2,
{16}5,,,1/3,,,{8}6/8,{4}4/5,{16}1,8,1,7,
{64}8,2b,3,4,,,,,{16}8h,{64}1,7b,6,5,,,,,{16}1h,{64}8,2b,3,4,{16}5,{64}1,7b,6,5,{16}4,
E
