&title=Beatboxer VS Trackmaker (feat. KAJI & Kohey)
&artist=t+pazolite
&first=-0.625
&des=左T右B 打到ExBreakHold请位让给另一侧发挥喵
&lv_7=协
&des_7=左T右B 打到ExBreakHold请位让给另一侧发挥喵
&inote_7=
(190){4},{16},,,,,,,,,,,,3$,
4$,3$,4$,2$,4$,2$,4$,{4}1x>4[8:1],1$x,
{8}5xh[4:1]/6xh[4:1],,,8,{4}8h[4:1],{8}7,7h[4:1],
,6h[4:1],,5,6,6,{4}5/7/1x>4[8:1],
{8}1$x/6xh[4:1]/5xh[4:1],,,7,{4}7h[4:1],{8}8,8h[4:1],
{64},,,,,,,,7,,,,,,,7?qq8[0.3355##0.6316],{4}7,,1x>4[8:1],
{8}1$x/5xh[4:1],,,7,{4}7h[4:1],{8}6,6h[4:1],
,8h[4:1],,5,6,6,{4}7/5/1x>4[8:1],
{8}1$x/5xh[4:1]/6xh[4:1],,,7,{4}2$x/7h[4:1],{8}6/1>4[8:1],6h[4:1],
1$bx,8,7,{64}6,,,,,,,5?-1[0.3355##0.1579]/4?-8[0.3355##0.1579],{24}5/4$,3$x,2$x,1$x,,,,,,,,,{8}2$/7bxh[4:31],
,,4$,{4}4$,{8}3$,3pp6[8:5],
,2$,{4}2$,1$,1$,
{8},5$,{4}5$,3$,{8}4$/2$,4$/2$,
,4p5[8:3]/3>6[8:3],,,,,,,8bxh[4:15],
4$x/3$x,,2$,3$,4$,4$,5$/3$,
,4$,5$,3$,4$/2$,4$/2$,,5$/3$,
5$/3$,,,4$,3$,2$,,2$/1$,
{4}2$/1$,2$/3$,4x-1[8:1]/3x-1[8:1],4$/3$,
6/5/6?-8[8:1]/5?-8[8:1],6/5,3-1[8:1]/4-1[8:1],4$/3$,
6/5/6?-8[8:1]/5?-8[8:1],6/5,3-1[8:1]/4-1[8:1],4$/3$,
6/5/6?-8[8:1]/5?-8[8:1],6/5,3-1[8:1]/4-1[8:1],4$/3$,
6/5/6?-8[8:1]/5?-8[8:1],6/5,3-1[8:1]/4-1[8:1],4$/3$,
6/5/6?-8[8:1]/5?-8[8:1],6/5,3-1[8:1]/4-1[8:1],4$/3$,
5/6,7/6/7?-4[4:1]*z3[4:1],2$,1$b,
{64}1-5qq5[8:5],{4},,,{16},,,{32},{64}7?-3v5[0.3355##0.6316],
{8}7,7,{4}2$/1$,2$/1$,2bxh[1:4]/1bxh[1:4],
{8}4/6,{16}7,5,{8}7,{64}6/4,,,,,,,3?-5[0.3355##0.1579],{16}3,5,{8}3,6,6,
7/4,{16}6,{64}5,,,6?-1-4[0.3355##0.3158],{16}6,5,{8}7h[4:1],{64},,,,,,,,,,,,,,,8?-5[0.3355##0.1579],{4}8x,
4/8,{16}4,6,4,6,{8}5h[8:1],{16}7,{64}7,,,4?-8[0.3355##0.1579],4,,,,,,,,,,,,,,,4?-7[0.3355##0.1579],
4x,,,,,,,,,,,,,,,4?-6[0.3355##0.1579],{4}4x,{8},,8bx/7bx,8bxh[1:4]/7bxh[1:4],
4$/3$,{16}2$,5$,{8}2$,4$/3$,{16}5-3-6[4:1],2$,5$,2$,,,{8}1$,
1$,{16}2$,4$,3-8-5[4:1],4$,{8}2h[4:1],,,{4}1x-4[8:1],
1$/5$,{16}3$,5$,3$,5$,{8}2$,{16}4$,3$,{8}4$,1$,
{16}4$,2$,{8}4$,{16}3$,5$,3$,5$,{4}4v1[8:1],2bxh[1:4],
5/6/3bxh[4:15]/6?-1[8:1],{64}6,,,,,,,4?-8[0.3355##0.1579],{8}4,7,4,{64}6h[4:1],,,,,,,,,,,,,,,1?-5[0.3355##0.1579],
{8}1,7,1,{64}6,,,,,,,6?-1[0.3355##0.1579],{8}6,4,6,5,
{16}8,4,8,4,7,5,7,5,7,5,8,4,8,4,8,4,
7,5,7,5,6,4,6,4,7,5,7,5,{4}7bxh[1:4],
{8}4$/6bxh[4:15]/1-3[8:1],5$,1$,4-8[8:1],2$,4$,{16}1$,2$,3$,4$,
{8}5$/1-5[8:1],4$,1$,3$,{16}2$,4$,2$,4$,1$,5$,1$,5$,
2$,4$,2$,4$,1$,5$,1$,5$,1$,5$,2$,4$,2$,4$,2$,4$,
3$,5$,3$,5$,2$,4$,2$,4$,1$,2$,3$,4$,{4}5$/1bxh[1:4],
{2}7/6/2bxh[4:15]/6?-4[8:1],{24}8b,7,6,5,,,,,,8b,7,6,
{4}5,{24}8b,7,{192}6,,,,,5?<3[0.3355##0.4737],,,{8}5,{2}B4/E4/E5,
{4}5h[8:1],{8}8/4,8,{24}7b,6,5,4,,,,,,7b,6,{192}5,,,,,4?-2-6[0.3355##0.4737],,,{4}4,
7,{8}8,8bxh[8:33],,,{2}3$/7bxh[4:15]/4-6[8:1],
{24}1$b,2$,3$,4$,,,,,,1$b,2$,3$,
{4}4$,{24}1$b,2$,3$,4>6[8:3],,,{2}E6/B5/E5,
{4}4h[8:1],{8}1$/5$,1$,{24}2$b,3$,4$,5$,,,,,,2$b,3$,4$,
{4}5<3[8:3],2$,{8}4$,4xh[8:3],,,{2}5/3bxh[1:4]/6h[8:3]/5?-1[8:1],
{16}7,8,7,8,{8}7,{16}1,8,
1,8,{8}1,{16}7,8,7,8,6,1,6,1,5,2,5,2,
{8}6h[8:1],{16}2,1,8,7,6,5,4/7,6,{8}5h[8:1],{16}8,7,{8}6h[8:1],
{16}1,8,{8}7h[8:1],{16}2,1,{8}8h[8:1],{16}4,1,4,1,5,2,5,2,
{2}6bxh[1:4],{16}2$,8$,1$,8$,1$,8$,5$,8$,
1$,8$,1$,8$,2$,4$,3$,4$,1$,5$,4$,5$,4$,5$,4$,5$,
{8}3h[8:1],{16}7$,8$,1$,2$,3$,4$,1$,5$,1$,5$,2$,5$,2$,5$,
3$,5$,3$,5$,4$,5$,4$,5$,7$,5$,7$,5$,8$,5$,8$,5$,
{1}1b>8[4:13],
,1xp8[4:5],
,1$/8/8?<1b[4:13],
{4},,,{16},,,{64},,,8?q1b[0.3355##1.5789],
{1}8,
{8},,,,,,,,2$/7x,
5,6,4$/7,{4}4$/8h[4:1],{8}3$/7,7h[8:7]/3pp6[8:5],
,2$,{4}2$,1$,1$,
{8}7x,5/2$,2$/6,7,{4}3$/8h[4:5],{8}4$/2$/7,4$/2$/7h[8:7],
,3>6[8:3]/4p5[8:3],,,,,,,7,
4$x/3$x/5,6,2$/7,3$/8h[4:1],4$,4$/6,3$/6h[8:1],
,4$/6h[8:1],3$,3$/6h[8:1],4$/2$,4$/2$/7/5,7h[8:1]/5h[8:1],3$/1$,
3$/1$/6,5,6,4$/7,3$/8h[4:1],2$,6,1$x/2$x/6h[8:1],
2$x/1$x,6h[8:1],2$x/3$x,5,7/4x-8[8:1]/3x-1[8:1],5,4$/3$/6,5,
{4}7bxh[4:5]/4-8[8:1]/3-1[8:1],4$/3$,4-8[8:1]/3-1[8:1],4$/3$,
4-8[8:1]/3-1[8:1],4$/3$,{16}6/2bxh[4:1],5,6,5,6,5,6,5,
{4}7bxh[4:5]/4-8[8:1]/3-1[8:1],4$/3$,4-8[8:1]/3-1[8:1],4$/3$,
4-8[8:1]/3-1[8:1],4$/3$,{16}6/2bxh[4:3],5,6,5,6,5,6,5,
{8}7/3bxh[4:1],8,5,6,{2}7h[4:1]/5h[4:1]/4-8[8:1]/1-3[8:1],
{8}5/6/2bxh[4:1],7,5,6,7/5/4-1[8:1],4$/5h[8:1]/7h[8:1],{4}3$,
{8}5/6/2bxh[4:3],7,5,6,{4}5h[8:1]/7h[8:1],{8}8/6,6/8h[8:7]/6?q7[8:5],
{4}1$b,2$b,3$b,4$b,
{1}8b/4$b/5b/1bq3[4:5]/5?q7[4:5],
{4},,,,4-8[8:1]/3-1[8:1],
4$/3$,5/6/6?-8[8:1]/5?-1[8:1],6/5,
4-8[8:1]/3-1[8:1],4$/3$,5/6/6?-8[8:1]/5?-1[8:1],6/5,
4-8[8:1]/3-1[8:1],4$/3$,5/6/6?-8[8:1]/5?-1[8:1],6/5,
4$/3$,3$/2$/7/7?-4[4:1]*z3[4:1],1$/2$,{64}2$b,,,,,,,,,,,,,,,8?-5qq5[0.3355##0.6316]*-5qq5[0.3355##0.6316],
{1}8,
{8}2-6v4[2:1]*-6v4[2:1],2$,{4}3bxh[2:9],,,5/6h[2:1]/2bxh[4:15],
8,{8}5h[2:1],4,{4}4,
{8}7h[2:1],1,,1,5h[4:1],{64}4,,,,,,,4?-8[0.3355##0.1579],{4}4,
4/5,6h[4:1],{8}1h[2:1],5,{4}5,
{8}7h[2:1],8,8,8,5h[4:1],6,6,6,
{4}1$/6bxh[4:15]/4h[2:1]/7bxh[4:15],8$,{8}3h[2:1],1$,{4}1$,
{8}4h[2:1],5$,,5$,2h[4:1],3$,{4}3-8[8:1],
3$/4$,5h[4:1],{8}1h[2:1],4$,{4}4$,
{8}8h[2:1],3$,3$,3$,2h[8:3],4$,4$,4$,
{4}4bx/8/5/1bxh[4:15]/5?-2[8:1],{64}7/5,,,,,,,6?V84[0.3355##0.3158],{8}6,,4/6,{4}3,
{64}2/5,,,,,,,3?-8[0.3355##0.1579],{16}3,{64}4,,,3?-6[0.3355##0.1579],{4}3,{16},,,,2,3,4,{64}5,,,7?-2[0.3355##0.1579],
{4}7,{8}7,{64}3,,,,,,,4?-8[0.3355##0.1579],{8}4,4,{64}6,,,,,,,,,,,,,,,7?-2[0.3355##0.1579],
7,,,,,,,5?V36[0.3355##0.3158],{8}5,7,5,,,{4}7bx,
5bx/1$/8bxh[1:4]/4-7[8:1],{8}2$/4$,3$,,2$/6$,6$/2$,{16}3$,4$,
{8}3$,{16}5$,4$,{8}5$,{16}3$,4$,{8}3>5[4:1],5$,{4}3$/5$,
{8}4-7[8:1],4$,1-5[8:1],1$,6$,6$,4$/7$,{16}6$,5$,
{8}6$,{16}4-1[8:1],5$,{4}4-7[8:1],{16},,,,2$,3$,{8}4$,
{1}Cf,
{16},,,,,,,,,,,,,,,,6,
5,6,5,6,5,6,5,6,5,6,5,6,5,6,5,
{4}7b/2b-8-4b[4:1]/3bv4b[4:1],5b/6b/6?-1b[4:1]/5?z1b[4:1],{8},,3$bx,3bxh[8:17],
{4}1/8/1?pp5[8:13]/8?-6[8:1],{64}8/1,,,,,,,,,,,,,,,8?-4[0.3355##0.1579],{4}8,{64}8,,,,,,,,,,,,,,,8?-6[0.3355##0.1579],
{4}8,{64}8,,,,,,,,,,,,,,,8?-4[0.3355##0.1579],{4}8,{64}8,,,,,,,,,,,,,,,6?-1[0.3355##0.1579],
{8}6,{64}6,,,,,,,5?-2[0.3355##0.1579],{8}5,{64}5,,,,,,,7?-4[0.3355##0.1579],{8}7,7,{64}1,,,,,,,1?-7[0.3355##0.1579],{8}1,
{64}6b,,,,,,,1?-3[0.3355##0.1579],{8}1,{64}5b,,,,,,,1?-7[0.3355##0.1579],{8}1,{64}4b,,,,,,,1?-5[0.3355##0.1579],{8}1,5b,1,
3$/4$/6bxh[4:7],4$/3$,2-5[8:1],2$,8-5[8:1],8$,3-8[8:1],3$,
4-7[8:1],4$,1-5[8:1],1$,8>3[8:1],8$,4$,4$,
{4}5$/4b-1[8:1],6$b/4-7[8:1],2$b/4-8[8:1],6$b/4-7[8:1],
2$b/4-1[8:1],6$b/4-8[8:1],4$/2$b,3bxh[4:1],
6/5/5?-1[8:1],5/7/7?-3[8:1],7/2/2?-6[8:1],2/5/5?-8[8:1],
5/1/1?-4[8:1],1/6/6?-1[8:1],6/5/5?-2[8:1],5/8/8?-5[8:1],
1b/8b/8?-3[8:1],7b/8b/8?-5[8:1],1b/8b/8?-3[8:1],7b/8b/8?-5[8:1],
2b/8b/8?-3[8:1],6b/8b,7bxh[2:1],8bxh[4:1],
{8}4$/3$,4$/3$,2$/5$,{16}6$,4$,{8}6$,{16}2$,4$,{8}2$,{16}7$,5$,
{8}7$,{16}3$,5$,{8}3$,{16}8$,5$,{8}8$,{16}2$,5$,{32}2$,3$,4$,5$,6$,7$,8$,1$,
{8}2$/4$,5$/3$,6$/4$,{16}7$,5$,{8}7$,{16}3$,5$,{8}3$,{16}8$,5$,
{8}8$,{16}2$,5$,{8}2$,{32}E6,B6,B7,E8,{4}1-4[8:1],1$/8$,
{1}6/5b/5?pp8[4:7],
{4},,,1>4[8:1],
{1}1$b/5b/5?pp8[4:7],
{4},,,1x>4[8:1],
{1}1$b/5b/5?pp8[4:7],
{4},,,1>4[8:1],
{64}1$b/5b,,,,,,,,,,,,,,,6?qq5-8[0.3355##0.6316],{4}6,,,1-4b[8:1],
{64}1$,,,,,,,,,,,,,,,5?v7[0.3355##0.1579],5,,,,,,,5?v3b[0.3355##0.1579],{8}5,2$/6,2$bx/6bx/A3f,
E
