&title=恋詠桜
&artist=loos, 柊莉杏
&first=0.03
&des=Shingura
&lv_5=13.5
&inote_5=(168){4},{8},,8,7,6,5,
4,3,2,1,1,2,3,4,
5,6,7,8,{4}1bqq6b[8:7],4,
3,2-5[8:1],{2}2b,
{8},,,,4h[4:1],6,5h[4:1],3,
4h[4:1],6,5h[4:1],3,4h[4:1],7,5h[4:1],2,
4h[4:1],6,5h[4:1],3,4h[4:1],8,5h[4:1],1,
3h[4:1],1,6h[4:1],8,{4}2,1s5b[8:1]/8z4b[8:1],
{2}1/8,{8}3,{16}3,4,{8}3,3,
3/1-5[8:1],2,1/7,6,6,{16}6,5,{8}6,6,
6/8-4[8:1],7,8/2,3,3,{16}3,4,{8}3,3,
3/1-5[8:1],2,1/7,6,{4}8<5b[8:1]/1>4b[8:1],8v5b[8:1]/1v4b[8:1],
8/1,3/6,{8}7s3[4:1],,,2,
,4,{4}4,{8}7/3,6/2,3/7,6/2z6[8:1],
,5,{4}5,{8}4,3,2,1,
8,7,6,5,4,{16}4,5,{8}4,6/3,
6/3,2/7,{4}7-5-3-1-7[4:3]/2-4-6-8-2[4:3],{2}2b/7b,
{4},,5,{8}4,5/3,
,2,{4}1pp6[4:3],{2}1/7h[4:3],
{4},,5,{8}3,4/2,
,3,2,1,{2}7qq4[0.3571##1.25]/8pp3[0.3571##1.25],
{4},,{8},,,1>4[8:3],
,8,7,6,{4}5<8[8:1]*>2[8:1],5,
4<7[8:1]*>1[8:1],4,{8}6/4,1,5/3,8,
6/4,{16}1,8,{4}1,{8}3h[8:1],{16}5,4,{8}6h[8:1],3,
6h[8:1],{16}4,5,{8}3h[8:1],6,2h[8:1],{16}5,4,{8}6h[8:1],1,
7h[8:1],{16}4,5,{8}3h[8:1],8,1h[8:1],{16}4,3,{8}5h[8:1],2,
8h[8:1],{16}5,6,{8}4h[8:1],8,1h[8:1],{16}4,3,{8}5h[8:1],2,
7h[8:1],{16}5,6,{8}4h[8:1],8,1h[8:1],{16}4,3,{8}5h[8:1],2,
1h[8:1],{16}5,4,{8}6h[8:1],2,8h[8:1],{16}5,6,{8}4h[8:1],7,
1h[8:1],{16}4,5,{8}3h[8:1],8,1bv4[8:1]*v6[8:1],1,{4}1,
8bv5[8:1]*v3[8:1],8,1-4[8:1]/8-5[8:1],8<5[8:1]/1>4[8:1],
1-6[8:1]/8-3[8:1],1/8,1V35[8:1]/5V71[8:1],1v7[8:1]/5v3[8:1],
{8},,,4h[4:1],,5,{4}6/3,
3-1[8:1]/7-5[8:1],7/3,8V24[8:1]/4V68[8:1],8v6[8:1]/4v2[8:1],
{8},,,3h[2:1],,1,{4}1-4[8:1],
1-7[8:1],1,6v1[8:1]/3v8[8:1],6v5[8:1]/3v4[8:1],
{8},,,3h[4:1],,4,{4}4>2[8:1]*<6[8:1],
4,5pp5[8:9]*qq5[8:9],{2}5,
,,,1>6[4:3],
{4},6<3b[4:3],,,{2}3<6[2:1],
6<4b[1:1],
,4<7[2:1],
,8<3[4:3],
{4},3>6b[4:3],,,{2}6>3[2:1],
3>5b[1:1],
,5>2[2:1],
{8},,,,3,3,3,3,
3,3,3,3,5,5,5,5,
5,5,5,5,1,1,1,1,
1,1,1,1,7b,7,7b,7,
{1}7bz3>3b[8:7],
{8},,8,8,{4}1V35b[4:1],5V71b[4:1],
1>5b[4:1],5w1b[4:3],{8},,,,,,,,4/5,
5/4,,6/3,
,7/2,{4}1bz5b[8:1]/8bz4b[8:1],1b/8b,{8}6/3,6/3,
,2h[4:1],4,5,6h[4:3],4,3,2,
{4}1-5[8:1],1-3[8:1],1/7h[8:3],{8}5,5,
,5,4,3h[8:5],4,5,6,7,
8,1b,1b-5[8:1],1b,{4}1b,{8}3,3h[8:3],
,2,1h[4:3],4,5,6,5,4,
{4}3,{8}8s4[8:1]/1s5[8:1],8/1,{4}8/1,{8}6/3,6/3,
,5/4,6/3,6/3,5/4,6/3,5v8[8:1]/4v1[8:1],7/2,
{2}5/4,{4}7<4[4:1],{8}8,1,
{4}2>5[4:1],{8}1,8,{4}7V53[4:1],3V17[4:1],
7<3[4:1],3>7[4:1],7-5[4:1],5-3[4:1],
3-1[4:1],1-7[4:1],{8}5,5,3,3,
{2}2,{4}2>5[4:1],{8}1,8,
{4}7<4[4:1],{8}8,1,{4}2V46[4:1],6V42[4:1],
2>6[4:1],{8}8<8b[8:9],8,{2}8,
{1},,,{4},,{8}7-3b[8:1],
3V57b[4:1],{4}5-1[8:1],
{8},,2-6[8:1],6V42[4:1],{2}4-8b[8:1],
{4}1b/5-1[8:1],{8}2,3,{4}8h[4:1]/4v2b[8:1],4-6-8[8:1],
4,{8}3,3,6-2[8:1],4-8b[8:1],6,4,
{2}1h[4:1],{8}1-3[8:1]/7-5[8:1],3V51b[4:1],{4}1/7-1[8:1],
{8},,3-7b[8:1],7V53[4:1],{2}5-8b[8:1],
{4}1h[4:1]/5v7b[8:1],5-3-1[8:1],5,{8}6,6,
3-7[8:1],5-1b[8:1],3,5,8b-4b[8:1],8,8/6-2[8:1],6,
{2}6/2,{8}1-5b[8:1],7-3[8:1],1<6b[8:1],7,
{4}1,{8}8-4b[8:1],2-6[8:1],8>3b[8:1],2,{4}8V64[8:1],
8V24b[8:1],8-4b[8:1],8,{8}3-7[8:1],3,
3/5-1[8:1],5,5/2-6[8:1],2,2/4-8[8:1],4,4/1-5[8:1],1,
{2}1/7,4pp1[8:3]/5qq8[8:3],
{8},,7/2-6[8:1],7/2,{4}2/7-3[8:1],7/2-6b[8:1],
2/7-3b[8:1],7/2>2>6b[4:7],{2}2h[4:7],
{8},,,,,,,,,,,,1,
2,3,4,
5,6,7,8,8,7,6,5,
{1}4V68[2:1]*V28[2:1],
{16}4b/5b,4b/5b,
E
