&title=Refel
&artist=削除
&first=0.025
&des=Youters
&lv_5=13+
&inote_5=(83.51)
{1},
{16}1/5<4[4:2],,,2h[16:5],,,,,,,,,1,,,,
1pp4[4:2]/5h[4:1],,,,,,8,7,6,,,,8,,7,,
6qq7[4:2]/3h[4:1],,,,,,1,2,3h[8:1],,,,1,,2h[8:1],,
8,1,7,8h[16:3],,,4,3,5V73[4:1],4h[16:3],,,,,,,
{4}1h[4:3],,,7V51[4:1],1V73[4:1],3qq5[2:1]*<8[4:1],,,
{4}8h[4:2],,2,2V48[4:1],8V26[4:1],6pp4[2:1]*>1[4:1],,,
{8}1h[8:1],5h[16:1],2h[8:1],6h[16:1],3h[8:1],7h[16:1],4h[8:1],8h[16:1],
{8}1h[8:1]/5,5h[16:1],8h[8:1],4h[16:1],7h[8:1],3h[16:1],6h[8:1],2h[16:1],
{16}1h[16:1]/5v8[4:3],,6,6,6h[16:1],,2,2,2h[16:1],,7,7,7h[16:1],,3,3,
{16}4-8[16:10],,3,3,3h[16:1],,7,7,7h[16:1],,2,2,2-6[16:1]*V86[16:3],6,6,6V42[16:3],
{16}2b,,,1,,,,8V64[16:3]*V24[16:3],,,8,,,,,,
{16}7V51[16:3],,,1V35[32:5],,,,,,,2,,8-4[16:1]*V64[16:3],4,4,4V28[16:3],
{16}8,,,3,,,,2V46[16:3]*V86[16:3],,,2,,,,,,
{16}2V48[16:3],,,8V24[32:5],,,5,,6,6,7,7,{32}8,1,2,3,4,5,6,7,
{16}8h[16:1]/4-8[4:1],,{32}7,5,7,5,,,1,,2,,3,,,,7,,3,4,,12,,,75,,8,1,8,1,
{16}8-4[4:1],2,{32}2,4,2,4,,,5,,6,,7,,,,3,,7,8,,56,,,31,,2,8,2,8,
{16}2p6[4:1],6,{32}3,5,3,5,,,4,,3,,2,,,,5,,2,1,,34,,,56,,4,6,4,6,
{16}37,26,15,48,8,4,{16}15,26,37,84,1,5,{32}4/8-4[12:1],7,6,5,4,3,2,1,
{16}8pp5[4:2],,,,1,,,,4,,,,4-1[12:1],,2,3,4pp1[4:2],8,7,6h[16:5],,,,,,,,,8-4[12:1],,7,,
{16}8qq1[4:2],1,2,3h[16:5],,,,,,,,3,4-8[12:1],,4,,4qq5[4:2],5,6,7h[16:5],,,,,,,,,7-3[12:1],,1h[8:1],,
{16}7pp4[4:2],1,,1,1,2,,2,2,3,,3,3-8[12:1],3,7,7,7/3pp8[4:2],7,6,5h[16:3],,,,,6h[16:2],,,,7-3[12:1],,62,,
{16}3/7qq8[4:2],8,1,2h[16:3],,,,,2h[16:2],,,2,3-7[12:1],,5,,36,5,4,6h[16:3],,,,,8<4[8:1],,26,,{32}8-4[16:1]/4,3,2,1,8,7,6,5,
{16}8b/4,,{32}6,5,6,5,6-1[12:1],,2,,3,,4,,5/6,,2,,4,3,,8,1-4[12:1],,7,,1,8,1,8,
{16}1,7,{32}3,4,3,4,3-8[12:1],,7,,6,,5,,4/3,,7,,5,6,,1,8-5[12:1],,2,,8,1,8,1,
{16}8,2,{32}6,5,6,5,6-1[12:1],,2,,3,,4,,5/6,,2,,4,3,,8,1,,6,,3,4,3,4,
{32}2,8,1,7,8,6,5,7,4,6,3,5,2,4,3,1,4,8,3,7,2,6,1,5,4/8-4[16:1],,,,{32}4/8,51,62,73,
{16}8b/4,,{32}6,5,6,5,6^1[12:1],,2,,34,,54,,5/6,,2,,4,3,,8,1p5[12:1],,65,,1,8,2,7,
{16}1,7,{32}3,4,3,4,3^8[12:1],,7,,65,,45,,4/3,,7,,5,6,,1,8q4[12:1],,34,,8,1,7,2,
{16}8,2,{32}6,5,6,5,6^1[12:1],,2,,34,,54,,5/6,,2,,4,3,,8,1,,65,,1,8,2,7,
{32}18,2,3,4,5,6,7,8,17,6,5,4,3,2,1,8,{64}27,3,4,5,6,7,8,1,2,3,4,5,6,7,8,1,2-6[16:1]/6,5,4,3,2,1,8,7,6,5,4,3,2,1,8,7,
{16}2b/6<4[4:2],,,2h[16:5],,,,,,,,,1,,,,
1pp4[4:2]/5h[4:1],,,,,,8,7,6,,,,8,,7,,
2pp7[4:3]/6h[1:1],,,,,,,,,,,,,,,,
