&title=フローリア
&artist=少年T-佐香智久
&first=0
&des=Natsume Takashi feat. Nyanko Sensei
&clock_count=6
&des5=Natsume Takashi feat. Nyanko Sensei
&wholebpm=182
&demo_seek=66
&demo_len=26
&lv_5=13
&inote_5=(182){1},{2},
{8}5`4,,2,4,3,5,46,,7,5,6,4,35,,2,4,3,5,46,,7,3,4,5,26,,1,4,3,5,46,,8,5,6,4,35,,1,4,3,6,5>2[8:1]/8<5[8:1],,5-1[8:1]/8,,8pp3[4:3],,8b,,7,6,5pp8[4:3],,5,,4,3,2pp5[4:3],,2,,1,8,7pp2[4:3],,7,,6,5,4V26[2:1],,4,,6V41[2:1],7,8,,1<6[4:1],,6>3[4:1],,3>8[4:1],,8w4[16:5],,,,,,2b/6b,,,,5,,
4/6h[4:3],,,,,,3h[4:3],,,,,,8h[2:1],,,,1,,27,,,,4,,5/3h[4:3],,,,,,6h[4:3],,,,,,1h[2:1],,,,8,,72,,5,5,4,4,3>8[4:1]/5h[4:1],,,6,,7,8/3v8[4:1],,7,,6,,2>5[4:1]/8,,7,7,,6,5/2v5[4:1],,6,,7,,8<5[4:1]/1h[4:1],,,2,,3,7v4[4:1]/4,,3,,2,,8qq4[8:5]/1h[2:1],,,,,,2b,,3,3,4,5,
6/2q4[8:3],,7,7,8<5[4:1],,5>2[4:1],,2<7[4:1],,7V51[8:3],,4,,2,2,8,1,2h[4:1]/7,,6,,45,,3/7p5[8:3],,2,2,1,,4qq3[4:1],,4pp5[4:1],,4-8[8:1],,4,,7,7,1,8,2/7h[4:1],,4,4,5,3,2pp5[2:1]/6,,7,7,,8,8<5[4:1],,4,,3,,7qq4[2:1]/2,,2,2,,1,1-5[4:1],,5qq4[8:3]*pp6[8:3],,,,,,,6/4>1[4:1],,7,7V51[8:3],,8,1,2-4[8:1],,28,,6,6,5,7,18,,3,3,2/4-1[8:1],5,4/6b,,7,7,8-4[8:1],1,2-5[8:1]/8,,2/6<1[8:1],,6/4-8[8:1],,
4b/7,,6,7/5-1[8:1],,8,7-3[8:1],,7/2-8[8:1],,6-4[8:1]/2,,6/3h[4:1],,,2/4-8[8:1],,1,2-6[8:1],,2/7-1[8:1],,3-5[8:1]/7,,3/6h[4:1],,,7V53[4:1]/5,,2,1-5[8:1],,1<6[4:1],,6>3[4:1]/1q7[8:3],,1,,,,84,5,6h[4:1]/1,,3,3,4,2,1pp5[2:1]/5,,6,6,7-4[8:1],8,7,,3,2,6,7,8qq4[2:1]/4,,3,3,2-5[8:1],1,2,,6,7,3,2,8qq8[8:3]/1,,2,2,,3,4-8[8:1],,4/7-4[8:1],,7/3>8[8:1],,3/5b-7[8:1]*-8[8:1],,5b-3[8:1]*-2[8:1],,5bw1[8:1]*-1[8:1],,5b,,{16}7,6,5,4,3,2,1,8,
{8}7bqq4[2:1]/3b,,3,2,1>4[8:1],,1-5[8:1],,1<3[4:1],,16,,7V51[8:3],,8,1-6[16:3],2,3,4b,,5,5,64,37,2pp5[2:1]/8,,7,8,,1,8<5[8:1],,8-2[8:1]/3,,8/4<7[8:1],,4-8[8:1]/3,,4>6[4:1]/5,,41,,5b-1[8:1],,7,7,68,17,8qq4[2:1]/2,,3,2,1>4[8:1],,1,,5pp5[4:1]*qq5[4:1],,5,,,,46,7,8/1-5[8:1],2,1/3b,,4,4,35,26,1pp5[2:1]/7,,8,7,,8,7<4[8:1],,7/1-5[8:1],,1/5qq4[4:1]*pp6[4:1],,,,,,5w1[8:1],,5b,,37,37,46,35,4pp7[2:1]/2,,1,2,,1,2-4[8:1],,7-3[8:1]/2-8[8:1],,2/7<1[4:1],,47,,8-4[8:1],,8pp2[8:1]*qq6[8:1],,8b,,4,35,26,17,2/8h[4:1],3,4,5h[4:1]/6,7,8,1/3>8[8:1],,7-3[8:1]/3,,71,,8b>3[8:1]/4b<7[8:1],,8b-4[8:1]/4b-8[8:1],,8b>2[16:1]*>3[32:3]*>4[8:1]*>5[32:5]/4b<6[16:1]*<7[32:3]*<8[8:1]*<1[32:5],,{1}8bpp7[4:7]/4bpp3[4:7],,{2},
{16}4,5,6,7,8qq5[4:3],1,2,3,{8}4/8b,,2,3,4-8[8:1],,4<7[4:1],,7>2[4:1],,2q4[2:1],,3h[2:1],,,,,,6V47[4:1]/2b,,3,2,1pp4[4:3],8,17,,7,6,5-1[8:1],,5>2[4:1],,2<7[4:1],,7<2[12:5],,5h[4:1],,,,7,,1V38[4:1]/8b,,1,8,7>5[4:3],6,5/7b,,7,6,5q3[8:3],,7,,8-4[8:1],,8<2[2:1],,5h[2:1],,,,,,8V61[4:1]/1b,,8,1,2<4[4:3],3,4/2b,,2,3,4p6[8:3],,2,,1-5[8:1],,1>7[8:5],,4h[8:5],,,,,,,{16},{1}8bq2[2:5]/3b<1[2:5],,,,,,E
