&title=Recollect
&artist=铃木木乃美 feat. Ashnikko
&des=フリューゲル
&first=0.22
&des_5=フリューゲル
&lv_5=13
&inote_5=(145){4},,{2}5-8[2:3]*s1[2:3],
{8},,,,,,,,,,,,,7,
{4}7/1h[4:1],
{16}5,5h[16:3],,,{4}3>8[4:1],8<5[4:1],5>1[4:1],
1w5[8:1],{32}B1f,C,{16}B6/B5/B4,,,{4}3>8[16:3],{8}4,5,
{16}6h[16:3],,,7h[16:3],,,{8}8,{4}1<6[16:3],1/2,
{16}3h[16:3],,,5h[16:3],,,{8}4,{4}4/6<1[16:3],{8}5/6,4,
{16}3h[16:3],,,2h[16:3],,,{8}1,{4}8/7-4-6[4:1],7/1,
{16}3h[16:3],,,4,{8}4-8b[8:1],5,{4}4/6<1V75[8:3],{8}6/1,2,
{16}3,,,4,,,{8}6,{4}7/5-8[8:1],5/8>5[4:1],
{16}7,,,7,,,{8}6,{4}5/4<7[16:3],{8}4/2,1,
8<1[8:3],,,,,Ch[4:3],,,,,,,2>5[8:1],
1,2/5,6,
7-4[8:1],8,7/1,2,3/5,4/6,5/7,{16}6,5,
7>2<7[4:1],5,{8}6,,,4-1[8:1],3,8-5[8:1],7,
2-6[8:1],3,{4}2/6-4>1[4:1],{8}8,7,6,5,
{4}1-4[8:1]/4-7[8:1],1/4,{8}6<1[8:1],5,6/1,{16}2,3,
{8}4-1[8:1],8,4/7,{16}6,6,{8}8,7,8/1,{16}2,1,
3,1,{8}4,3/5-8[8:1],6,5/2-5[8:1],1,2/7-3[8:1],8,
7/3-7b[8:1],2,{4}1,{8}2b/8,6b/1,3b/5,7b/4,
{2}5bq1b[8:1]/1q5[8:1],{8}E3h[8:3],,,E5h[8:3],
,,{4}E7h[8:3],{8},E1h[8:3],{16},,,,E4h[8:3],
,,7,,,{8}6,5h[4:1],,,2h[4:1]/B6h[4:1],
,,{4}8h[4:1]/4h[4:1],{8},6h[4:1]/E2h[4:1],,,{4}8bh[32:1],
{8}7/1h[2:1],6,{2}5<4[4:5],
{8},Ch[8:7],,,,,,,,,,,5/7,
8,2/4,1,
7/8,7/8,6/1,1/6,{12}5,5,5,8,8,8,
{4}1-5[8:1]/7-3[8:1],1/7,2b>5[8:1]/6b<1[8:1],2b/6b,
{8}3/8,{16}2-6[8:1],1,,,{8}2/8,{4}7-4[8:1]*-3[8:1],7b,
{8}2/5,{16}6,5,{8}7,8,{4}1-5[8:1]/3-5[8:1],1/3-7[8:1],
{8}3/7,6,5,8>4[8:1],4<8[8:1],8,{24},,,1x,2x,3x,
{4}4x-1[8:1],4/6<1[8:1],{8}6/2,3,{4}4w8[8:1],
{8},,6z2[4:1],6h[4:1],,,,7,
{4}7<4[8:1],{8}7,1-5[8:1],,1/8,6,6,
4/3,2,7/8-4[8:1],6,{4}5b/8b<5[8:1],3b/8b,
{16}2b,4,{8}1,8/2,2/8,{4}7<4b[8:1]/1>4b[8:1],1b/7b,
{16}7h[8:1]/1h[8:1],,,2h[8:1]/6h[8:1],,,3,3,{8}5-1v4[16:5],6,7/5,8h[4:1],
,,7<4[8:1],7,{4}7/4-8[8:1]*>1[8:1],4bx,
{8}7-3[8:1],6,1-5[8:1],2,8,7,6/4,3/5,
,6/8,1/3,2/7,{4}1v4[8:1]/8-5[8:1],1b/8b,
{8}3h[8:1],{16}4,2h[16:3],,,6,5,{8}7<4[8:1],8>5[4:1],7,8,
,8b,{4}8b-4[8:1],{8}8/4,{16}3,3,{8}5-1[8:1],4/6,
{4}5w1[8:1],5,{8}3/7-3[8:1],6/4,7/2,1,
8-4[8:1],6/2,8/4,1,{2}2b-4-6-8-2[2:5]/3b-5-7-1-3[2:5],
{4},,,,,,,,,,1b,
2b,
3b,{8}4-8-4[4:1]/5-1-5[4:1],3/6,{32},,,,,,,,,,,,,,7,8,
{8}7,1/6,5/2-5[8:1],3/4,2/6,7,{16}8,8,{8}8,
1/7v5[8:1],6/5-3[8:1],7,2,{4}1h[4:1],{32}4x,5x/2x,6x/3x,7x/4x,{8}5x/8x,
2/1,3/4,5/6,7/8,5/2-5[8:1],6/1-6[8:1],2,1,
4,3/5-1[8:1],2/6-8b[12:1],5,{2}6b,
E
