&title=Terrasphere
&artist=Plum
&first=0
&des_5=Rhythlame
&lv_5=14
&lv_6=1
&des=Rhythlame
&inote_5=(80){4},{16},,,,,,,2,3,4,5,6,
{8}2/7p5[16:3],3h[4:1],,,6/3pp1[16:3],7h[4:1],,,6/8pp3[16:3],
6h[4:1],,,3/1q6[8:1],4,{16}5,4,3,2,
{8}5/1p7[4:1],{16}5,6,{8}7,6,5>2[8:1],3,{16}5,6,7,8,
{8}1p4[8:1],{16}5p8[8:1],2,{4}6,{8}6h[8:1],7,3h[8:1],2p6[8:1],
{16}4/5,3,7-4[16:1],8,,5,7q3[8:1],3,5/4,6,2-5[16:1],1,,4,2<7[8:1],6,
5/4,3,7-4[16:1],5,,5,7>2[8:1],3,4/5,6,2-5[16:1],4,,4,2p6[16:1],6,
5/4,6,7<4[16:1],8,1,2,7q3[16:1],2,4/5,3,2>5[16:1],1,8,7,2q7[8:1],7,
4/5,6,7<4[16:1],8,1,2,7p2[8:1],3,4/5,3,2,1,4w8[16:1],8h[32:1],6h[32:1],2h[32:1],
4,,,3,{8}1-7[8:1],7-2[8:1],2-6[8:1],6-3[8:1],3>5[4:1],5,
{4}4h[8:1],{8}4qq2[8:1],3,8qq6[8:1],7,4,3,
5<8[8:1],6,5/3>8[8:1],2,3/5q1[8:1],7,5/4p8[8:1],3,
{4}4/6q3[8:1],6/2qq5[8:3],{2}2/6,
{16}7b/2bv5[16:1],,,4,7-4[16:1],8,2-5[16:1],1,{8}7/3-8[16:1],2/6v1[16:1],3/7,6/2,
{16}3/5h[8:1],,,6h[16:1],,7,8,1,2>7<2[4:1],5/4,7/2,8/1,,,,,{8}6-8[16:1],
4,{16}6-1[16:1],2,3,4,{8}5/6-2[16:1],{16}4,5,7/6>3[16:1],8,1pp8[8:1],2,
{8}6,{16}1,7,6qq1[8:3]*qq3[8:3],5,7,5,6h,{32},,,,,,,,,,,,4>7[8:1],5,
{16}3,7-3[16:1],6,4/5h[8:1],{32},,,,,,5<2[8:1],4,{16}6,2-6[16:1],3,5/4h[8:1],,,,5,
8-6[16:1],6-2[16:1],2-8[16:1],8-4[16:1],,,,3,1-5[16:1],8-4[16:1],2-6[16:1],7-3[16:1],,,,,2,
1,8,4/7p5[16:3],,1,,3,{32},,2,1,{16}8-4[16:1],4>2[16:1],1,5,8/6,7,
1-7[16:1],7-3[16:1],3-1[16:1],6h[16:3]/1-5[16:1],{32},,,,,,8,7,{16}6,1,2,3,{32}4,5,3,7,2,5,4>7[8:1],8,
{16}1,7p3[16:1],6,4/5,,3,,5<2[8:1],1,2q6[16:1],3,5/4,,6,,5,
4>2[16:1],2-6[16:1],6<8[16:1],8-4[16:1],{32},,,,,,5,6,{16}7,1-5[16:1],1-4[16:1],1-3[16:1],,,,,8,
7,6,5h[16:5],,7,8,1,4,3,2,1,3/2qq7[2:1],4,5,6,
2/7,,,,,,,,,8/1,2/1,2/3,3/4,4/5,6/5,7/6,
{4}7/8v3v6v1v4v7v2v5v8[8:29],3$,,6$,
,1$,,4$,
6$,7$,1$,2$,
3$,4$,5$,{8}6-1[16:1],{16}7,6,
3-8[16:1],4,5,6,6<1[16:1],5,4,3,3v8[16:1],4,5,6,6p1[16:1],5,4,3,
2<7[16:1],3,4,5,6q2[32:3],5,4,3,2<4[8:1],3,4,5,{8}6,{16}8w4[16:1],7,
{8}2/6,8,{16}2/5-2[16:1],1,8,7,5/6v1[16:1],7,8,1,2p5[8:1],3,5>4v7[8:1],6,
{8}2/7<8[4:1],7,8>6[4:1],{16}6,5,4h[8:1],,,6,7,{32}4,8,3,7,2,6,
{16}1h[2:1],A2`E2`B2f,A3`E3`B3f,A4`E4`B4f,A5`E5`B5f,A6`E6`B6f,A7`E7`B7f,A8`E8`B8f,{32},2,3x,4,5x-1[0.75##0.1875],6,7x/1<6-3[0.75##0.4688],2,3x,4,5x,6,{8}7x,
{16}4V26[32:5],4,{32}5,6>8[32:5],7,8,{8}1h[16:1],7h[16:1],6h[8:1],{16}5,4h[16:1],{32},3,2,1,5,4,3,2,
{16}5/1-5[16:1],2/6,{32}7,3,8,4,{8}1>7[16:3],7/4h[8:1],1,{32}1,2,3,4,5/8>3-7[16:3],7,6,5,{8}4h[16:1],
{16}4,5,6,{32}8,1,2v4>3-1[16:3],3,{16}4,7,1<5[8:1],2,5V71[8:1],5,5h[16:1],,4h[8:1],{32},,,3,
{16}4<7[16:1],4q8[16:1],4-1[16:1],4>2[16:1],{32},,,,,,,,8,7,6x,5,4x-8[16:1],3,2x/8>3-6[32:5],7,6x,5,4x,3,{8}2x,
{16}5V73[32:5],5,{32}4,3<1[32:5],2,1,{8}8h[16:1],2h[16:1],3h[8:1],{16}4,5h[16:1],{32},6,7,8,4,5,6,7,
{16}4q1[32:3]/8q5[32:3],7h/3h,2h/6h,5h/1h,,,4/8,7,6/2,1,6/8V25[8:1],6,5>6[4:1],5,6,7,
6,5,4,3h[8:1],{32},,5,6,7,8/4,5,6,{16}1/7,5-8[16:1]/3-8[16:1],1/7,2/6,,5/3,{32},,8,1/7,
{16}2/6,6h/2h,5/3,1h/7h,6/4,8h/2h,4/6,3h/7h,{32}6x>6>6>6>6[1:1],5>5>5>5>5[1:1],4>4>4>4>4[1:1],3>3>3>3>3[1:1],2x<2<2<2<2[1:1],1<1<1<1<1[1:1],8<8<8<8<8[1:1],7<7<7<7<7[1:1],6/2x,1,8,7,6,5,4,3,
{8}2/8xh[32:1],6xh[32:1],{32}2x,1,8,7,6,5,{16}4,{8}4xh[32:1],5xh[32:1],{32}5x/6xh[8:1],4x,3x,2x,1x,8x,7x,6x,
{8}1>5[8:1]/5<1[8:1],1p5[16:1]/5p1[16:1],{4}5/1,{16}6x,5,4,3,{32}2/8,7,6,5,1/4,2,3,4,
{16}5,6,7,8,1qq6[8:3],6/2h,7/3h,8/4h,{2}1/5h[8:3],
{16}4/7,6,5/3,3,{32}5,4,6,2,7,4,5,1,{8}2b/8bp6[16:3],3h[4:1],,,7/1pp5[16:3],
6h[8:1],{16},,7,8,{8}3/1qq6[16:3],4h[4:1],,,6/8p3[8:1],
5,{16}4,5,6,7,8v5[16:1],4v1[16:1],8v7[16:1],4v3[16:1],,,,,5v8[16:1],
1v4[16:1],5v6[16:1],1v2[16:1],,,,,7v4[16:1],3v8[16:1],7v6[16:1]*v5[16:1],3v2[16:1]*v1[16:1],,,,,6v1[16:1],
2v5[16:1],6v7[16:1]*v8[16:1],2v3[16:1]*v4[16:1],
E
&inote_6=(80){4},
E
