&title=[FULL]メルヒェン街の電氣祭
&artist=HaTa/feat.初音ミク
&first=0
&lv_5=13
&des_5=日终
&inote_5=
(188){4},{16},,,8,,7,,6,,5,,4,
,3,,2h[4:1],,,,3,,4,,5,,,,2,
,3,,4,,3,,4,,5,,4,,5,,6,
,5,,6,,7,,8h[4:1],,,,1,,,,8,
,7,,6,,5,,4,,3,,2h[4:1],,,,3,
,4,,5,,,,7,,6,,5,,6,,5,
,4,,5,,4,,3,,4,,3,,2,,1h[4:1]/8h[4:1],
,,,,,,,(184)8,,7,,6,,5,,4,
,3,,2,,(186)1,,2,,3,,4,,5,,6,
,7,,8,,7/2,,1,,1-4[8:1],,,,8,,8-5[8:1],
,,,1,,3,,2pp7[2:1]/6qq2[2:1],,,,2/6,,,,,,,,,,,,8,
,8,,7,,7,,6,
,6,,5,,5,,4/6,,5/3,,7-5-2[4:1]/2-5-7[4:1],,,,,,,,,,,,1-5[8:1],
,,,2-6[8:1],,,,3-7[8:1],
,,,4-8[8:1],,,,5-1[8:1],,,,5,,,,(188)4,
,3,,2,,,,(190)8,,1,,7,,2,,6,
,3,,5,,4,,5,,7,,2,,6,,3,
,5,,4,,,,(188)7,,7-4[8:1],,,,2,,2-5[8:1],
,,,7,,7,,3,,1,,7z3-5[8:3],,,,,,,,,,,,1,
,1,,2,,2,,3,
,3,,4,,4,,6qq1[2:1]/5-7-1[2:1],,,,6/5,,,,,,,,,,,,(186)8-4[8:1],
,,,7-3[8:1],,,,6-2[8:1],
,,,5-1[8:1],,,,5,,,,7,,7,,1,
,2,,3,,,,8,,1,,7,,2,,6>3[8:1],
,,,6,,7,,7,,(188)5h[8:1],,4h[8:1],,3h[8:1],,2h[8:1],
,1h[8:1],,8h[8:1],,7h[8:1],,6>2[8:3],,,,,,2<6[8:3],,2,
,,,6-2[8:3],,6,,2,,,,,,,,1h[8:1],
,2h[8:1],,3h[8:1],,4h[8:1],,5<1[8:3],,,,,,1>5[8:3],,1,
,,,,,5,,7V13[2:1],,,,,,,,3,
,,,,,,,2>5[8:3],,,,,,5<8[8:3],,5,
,,,8-4[8:3],,8,,4,,,,,,,,7h[8:1],
,6h[8:1],,5h[8:1],,4h[8:1],,3-8[2:1],,,,,,,,8-5[2:1],
,,,,,,,5>2[2:1]*-1[2:1],,,,,,,,,,,,,,,,(182)5/3,
,,,3,,4,,3,
,,,6,,5,,6,,,,6/3,,,,4/7,
,,,3/5,,,,(186)1/7,,,,7,,8,,7,
,,,2,,1,,2>5[8:3],,,,,,7,,7,
,,,6/3b,,,,(188)8/1,,,,7-4[8:1],,8,,7,
,,,2-5[8:1],,1,,2-7[8:1],,,,2-4[8:1]*-6[8:1],,,,2,
,,,7/2,,2/7,,7/2,,,,3/6,,3/6,,6/3,
,,,7,,6,,7,,6,,4,,4,,2,
,3,,2,,,,4/6,,,,3-8[8:1],,4,,3,
,,,6-1[8:1],,5,,6-3[8:1],,,,6-8[8:1]*-2[8:1],,,,6,
,,,7/1,,7/1,,7/1,,,,5/3,,5/3,,5/3,
,,,3,,2,,3,,2,,3,,4,,5,
,4,,6,,5,,(186)2-5[8:1]/6-1[8:1],,,,6-8[8:1]/2-4[8:1],,,,6-4[8:1]/2-8[8:1],
,,,6-1[8:1]/2-5[8:1],,,,6-2[8:1]/2-4[8:1],,,,2/6<1[8:1],,,,6,
,,,5,,5,,7-5[8:1]/2-5[8:1],,,,7-4[8:1]/2-4[8:1],,,,7-1[8:1]/2-5[8:1],
,,,2-4[8:1]/7-5[8:1],,,,2-8[8:1]/7-3[8:1],,,,7b<4[8:1]/2>5[8:1],,,,2/7b,
,,,2/7,,2/7,,8b-6[8:1]/1b-5[8:1],,,,8-4[8:1]/1-3[8:1],,,,8-6[8:1]/1-5[8:1],
,,,8-4[8:1]/1-3[8:1],,,,8-6[8:1]/1-5[8:1],,,,1/8>3[8:1],,,,8,
,,,4,,4,,7-5[8:1]/2-5[8:1],,,,7-4[8:1]/2-4[8:1],,,,7-4[8:1]/2-5[8:1],
,,,7-5[8:1]/2-4[8:1],,,,7-1[8:1]/2-6[8:1],,,,7<4[8:1]/2>5[8:1],,,,2b/7b,
,,,,,,,(188)B6/E6/E7/B7,,,,,,B2,,B3,
,,,B5/B4/E5/E6,,,,B7,,E7,,B6,,,,B1/B8/E1,
,,,B3,,E3,,B2,,,,E6/B6/B5/E5,,,,B7,
,E1,,B3,,,,B1/E1/B8/A1,,,,B3,,E4,,B4,
,,,E5/B5/E6/B6,,,,E8,,B7,,B8,,,,(182)B8,
,B7,,B6,,B5,,B4,,B3,,B2/B1,,,,,,,,,,,,(184)5,
,4/7,,,,4,,5/2,
,,,(186)1>5[16:5],,5,,6,,7,,8,,,,6,
,2/8,,,,,,(188)6/7h[8:3],,5,,4,,3,,,,4,
,3/8,,,,3/2h[8:3],,4,,5,,6,,,,7,
,8/3h,,,,1-5[8:1],,,,2-6[8:1],,,,3-7[8:1],
,,,4-8[8:1],,,,5-1[8:1],,,,5,,6,,7,
,8,,1,,,,7h[8:1],,6h[8:1],,5h[8:1],,4h[8:1],,3-8[8:1],
,,,3,,,,6,,4,,5,,4,,5/3,
,,,3/6,,,,1/7,,7-4[8:1]/1-4[8:1],,,,7/1b,,,,7,
,8-6[8:1]/2-6[8:1],,,,8b<4[2:1]/2b-5-3[2:1],,,,8/2b,D8,A7,D7,A6,
D6,A5,{8}D5,{16},,,(184)1,,8,,2,,7,,3,
,6,,4,,5,,4,,,,3>8[8:1]/6<1[8:1],,,,,,,,,,,,(188)8-4[8:1],
,,,7-3[8:1],,,,6-2[8:1],
,,,5-1[8:1],,,,5,,,,,,2/7,,6/3,
,5/4,,4/5,,,,7,,8,,6,,1,,5,
,2,,4,,3x,,2,3,4,5,6,7,8,1,2,
3,4,5,6,7,8,,2/1x>5[8:3],,,,,,5<1[8:3],,5,
,,,1-5[4:1],,1,,5,,,,,,,,8<5[4:1],
,4,,3,,2,,1-6[8:3],,,,,,6-2-5[4:3],,6,
,,,,,8,,8,,,,,,,,Cf,
,,,,,,,(186)6-4[8:3],,,,,,4-2[8:3],,4,
,,,2-8[8:3],,2,,8h[4:1],,,,,,,,1h[8:1],
,2h[8:1],,3h[8:1],,4,,2/7-3[8:1],,,,7/2-6[8:1],,,,2/5-1[8:1],
,,,5/4-8[8:1],,,,4,,,,A1,,D2,,A2,
,D3,,A3,,D4,,2/7h,,,,3-8[8:1],,7,,3,
,,,2/4,,,,7/2h,,,,6-1[8:1],,2,,6,
,4,,4,,,,1pp5[8:3]/7qq3[8:3],,,,,,,,,,,,7-5[8:1]/2-4[8:1],
,,,7/2<7[8:3],,,,,,6,,6,
,,,8/2,,,,,,,,,,,,,,,,,,,,(188)6/4,
,,,6-1[8:1],,4,,6,
,,,3-8[8:1],,5,,3,,,,6-4[8:1]/2-8[8:1],,,,2/6,
,,,3,2,1,,6/5b,,,,6,7,8,,4/3b,
,,,8,,7,,6,,4/5,,3,,2,,1,
,8,,6/7,,,,8/3,,,,7-4[8:1],,8,,7,
,,,2-5[8:1],,1,,2,,,,7-5[8:1]/2-6[8:1],,,,2/7,
,,,8,1,2,,6/5b,,,,2,1,8,,4/3b,
,,,1,,2,,3,,4/5,,6,,7,,8,
,1/2,,3,,4,,(186)8-6[8:1]/2-6[8:1],,,,2-4[8:1]/8-4[8:1],,,,8-6[8:1]/2-4[8:1],
,,,8-5[8:1]/2-5[8:1],,,,8-4[8:1]/2-6[8:1],,,,2<7[8:1],,,,2,
,,,3,,3,,2b-4[8:1]/6b-8[8:1],,,,6-4[8:1]/2-8[8:1],,,,6-8[8:1]/2-8[8:1],
,,,6-4[8:1]/2-4[8:1],,,,6-8[8:1]/2-4[8:1],,,,6V42[4:1],,,,6,
,8,,8,,8,,6-8[8:1]/3-1[8:1],,,,6-4[8:1]/3-5[8:1],,,,6-8[8:1]/3-1[8:1],
,,,6-4[8:1]/3-5[8:1],,,,6-8[8:1]/3-1[8:1],,,,6/3<6[8:1],,,,3,
,,,2,,2,,8-6[8:1]/1b-5[8:1],,,,8b-4[8:1]/1b-3[8:1],,,,8b-6[8:1]/1b-5[8:1],
,,,8b-4[8:1]/1b-3[8:1],,,,8b-6[8:1]/1b-5[8:1],,,,8b-4[8:1]/1b-3[8:1],,,,1b/8b,
{24},,,,,5x,5x,5x,{48},,,,,(188){16}6/3b,,,,6,,3/7,,4/6,
,,,4,,5/2,,6-8[8:1],,,,6-2[8:1],,,,6-4[8:1],
,,,6/3b,,,,8h[4:1],,,,7h[4:1],,,,6,
,5,,4,,3,,2,,1,,8,,7,,6/3-8[8:1],
,,,3/5-1[8:1],,,,5,,,,8<5[8:1]/2<7[8:1],,6/4,,8/2,
,,,3/4,,3/4,,3/4,,,,2/5,,5/2,,2/5,
,,,7h[4:1]/1h[4:1],,,,,,,,7-5[8:1]/8-4[8:1],,2,,8/7,
,,,2-4[8:1]/1-5[8:1],,7,,1/2,,,,2>5[8:1]/7>2[8:1],,5x,,7/2,
,,,,,,,4/6b,,4/6b,,,,2/8b,,,,4/5b,
,4/5b,,,,A8,D8,A7,D7,A6,D6,A5,D5,A4,
D4,A3,D3,A2,D2,{8},{16}3/7,,,,(186)7,,5,,7,
,,,8/2,,,,1pp6[2:1],,,,,,,,6>4[4:1],
,,,4,,,,1,,,,7,,8,,7,
,,,5/7,,,,4/2,,,,7,,5,,3/7,
,5,,5,,,,,,,,8/1-5[8:1],,,,1,
,,,1/2-6[8:1],,,,2,,,,2/3-7[8:1],,,,3,
,,,3/4-8[8:1],,,,4,,,,4/5-1[8:1],,,,5,
,,,3/7-3[8:1],,,,7/2-8[8:1],,,,2/6-1[8:1],,,,6/3,
,,,5/3,,,,,,,,(188)5,,2,,3,
,,,6/2,,,,5z1[2:1],,,,,,,,1-7[4:1],
,,,5,,,,5,,,,6,,8,,7,
,,,6,,,,5/4,,,,5,,3,,4,
,,,6/2,,,,,,,,1/8-4[8:1],,,,8/7-3[8:1],
,,,7/6-2[8:1],,,,6/5-1[8:1],,,,5/4-8[8:1],,,,4,
,,,7,,,,6>1[2:1],,,,,,,,,,8,
,8,,,,(186)3/7,,5,,7/2,,5,,7/2,
,5,,7/3,,5,,8/7b,,,,,,,,,,,,,,,,(184)E8,
,E2,,B2,,B6,,B3,
,E6,,E4,,D5,,(188)7/1h[8:3],,,,,,7,,7/1,
,,,6,,7/8,,7h[4:1],,,,6h[4:1],,,,5h[1:1],
,,,4-8[8:1],,,,4,,,,7-3[8:1],,,,7,
,,,1h[4:1],,,,3h[4:1],,,,5,,,,6h[4:1],
,,,8h[#0.3191528],,,,4>1[4:1],,,,5,,6,,7,
,,,7/1pp5[8:3],,,,1,,,,,,7,,8/2,
,,,(186)6h[4:3]/1-5[8:1],,,,1,,,,2-4[8:1],,,,2,
,,,5,,,,6/2,,,,5/4,,,,5,
4,5,4,5,4,5,4,(188)5<7[8:1],,,,4,3,2,1,8,
,,,7,6,5,4,3/2-6[8:1],,,,2-4[8:1],,,,2,
,,,5/7,,5/7,,5/7,,,,2/4,,4/2,,4/2,
,,,(186)2,,3,,5/4,,6,,7,,1/8,,7,
,5/6,,4,,,,(188)4>2[8:1],,,,5,6,7,8,1,
,,,2,3,4,5,6/7-1[8:1],,,,7-5[8:1],,,,7,
,,,3,4,5,6,8/7b,,,,6,5,4,3,1/2b,
,,,(186)8,,6/7,,5,,4/3,,2,,1,,8/7,
,6,,5,,3/4,,1b-7[8:1]/2b-6[8:1],,,,1b-5[8:1]/2b-4[8:1],,,,2b-6[8:1]/1b-7[8:1],
,,,2b-4[8:1]/1b-5[8:1],,,,2b-6[8:1]/1b-7[8:1],,,,1b/2b<6[16:3],,,,2,
,,,3,,3,,8b-6[8:1]/1b-5[8:1],,,,8b-4[8:1]/1b-3[8:1],,,,8b-6[8:1]/1b-5[8:1],
,,,8b-4[8:1]/1b-3[8:1],,,,8b-6[8:1]/1b-5[8:1],,,,1b/8b>3[8:1],,,,8b,
,5b,,5b,,5b,,7b-5[8:1]/8b-4[8:1],,,,7b-3[8:1]/8b-2[8:1],,,,8b-4[8:1]/7b-5[8:1],
,,,8b-2[8:1]/7b-3[8:1],,,,8b-4[8:1]/7b-5[8:1],,,,7b-3[8:1]/8b-2[8:1],,,,8b-4[8:1],
,,,5,,5,,1b-3[8:1]/7b-5[8:1],,,,7b-4[8:1]/1b-4[8:1],,,,7b-5[8:1]/1b-3[8:1],
,,,7b-4[8:1]/1b-4[8:1],,,,7b>2[8:1]/1b<6[8:1],,,,7b-4[8:1]/1b-5[8:1],,,,1b/7b,
,,,,,,,A7,,,,A2,,,,A6,
,,,A3,,,,E1,,,,E5,,,,E3,
,,,E7,,E6,,E5,,,,B8,,,,B5,
,,,E2,,,,E4,,,,B7,,B8,,E1,
,,,E5,,,,E2,,,,E8,,,,B3,
,,,B6,,,,(150)B8/E8,,,,E3/B2,,,,E5/B5,
,,,A8,,A7,,(100)A6,,,,E4,,,,E6,
,,,(80)E2/B1/B2,{4},{16}C,{4},{16}E6,,,,,,B2/E2/E3/B1,
E
