&title=Signal(feat.Such)
&artist=rejection
&first=-0.44
&des=ygh/KKMo
&lv_5=13+
&des_5=ygh/KKMo
&inote_5=
(175){4},,,,,2-6[4:1],
,7,
{8}8<5[4:1],2,,3,4,4,{16}E4,E3,{8}E2,
5,1x>4[8:1],5
||这是一个标记~
,1,6,7,{4}8h[8:1]/1h[8:1],
6h[8:1]/3h[8:1],{8}4-8[8:1],5,4,7,6<1[8:1],5,
4,3,2q4[8:3],7,{4}8,8,
{8}7,6,3-8[8:1],4,3,6,{16}E7,E8,{8}E1,
3-5[8:1],6,3,6,{4}7-3[8:1],7/4-8[8:1],
4/6,7,{8}1-5[8:1],8-4[8:1],1-3[8:1],8-6[8:1],
1,8,{4}4h[8:1],4h[8:1]/5x-7[8:1],4h[8:1],
3h[8:1]/7x-4[8:1],3h[8:1],3h[8:1]/4x-8[8:1],3h[8:1],
{8}7/3,1/5,{4}6h[8:1]/2-4[8:1],6h[8:1],5h[8:1]/1-4[8:1],
5h[8:1],5h[8:1]/4x>1[8:1],5h[8:1],6h[8:1]/1x-5[8:1],
6h[8:1],{8}7,7,7,7,5/7,5,
5,5,3/5,3,3,3,1/3,1,
1,1,{16}3,5,3,5,3,5,4,6,4,6,4,6,
5,7,5,7,{8}8/1,{16}2,7,{8}2,3/6,{16}4>1>4b[4:1],6,{8}4,
C,E5,,,{4}1b/8b,{8}7,4,
5/3v6[8:1],2,6,7,8,1,{16}4,4,{8}4,
3/5,2/6,{4}8-6[8:1],8/5-1[8:1],5/3-7[8:1],
3/7,{8}1,6,2,5/3,4<7[8:1],3,
2,1,8-4[8:1],6,{4}8<5[8:1],3/8>3[8:1],
5x/8,{8}5,2/6,7/3,4,{16}5,5,{8}5,
4,7/5,8-5[8:1]*-3[8:1],1,{4}8-4[8:1],8/4w8[8:1],
{16},
||这是一个标记~
,,,{8}6x/2x,5/3,7-5[8:1],4-1[8:1],7,4,
8,2x,7,6/5,2,3/4,6,7/5,
2,5/3,{4}4-8[8:1]/6-2[8:1],4/6,{16}1,1,{8}1,
8/2,7/3,5,2,6<1[8:1],4,6/3-5[8:1],2,
3/7,8,8-6[8:1],6-4[8:1],8,3,1-3[8:1],1-7[8:1],
,,4,3,6/4,7,1/2,8,
7/3V17[8:1],6,3,5-1[8:1],6,5,{16}E4,E3,{8}E2,
6,8,{16}1,7,1,7,2,6,2,6,3,5,3,5,
4,6,4,6,5,7,4,6,3,5,4,6,{8}1b,1b,
C,E7/B2,{4}6x/1x-6v3[2:1],,,,1/8<5[8:3],
{8},2-7q4[8:3],,,,,{4}6<8-5pp7[4:3],
,,,3-7[8:1],
4-8[8:1],5-1[8:1],
6,2p5[2:1]/8q5[2:1],,,,6/5>1[8:1],
{8},6<2[8:1],,,,,{4}3/4v7-2-6[4:3],
{8},,,,,,1,
1,7,7,6/3,{16}4,5,
{8}4,8,{4}8b<5b[2:1],E4,C,
E8,1>4[2:1],E6,C,
E2,5b<8b[2:1],E4,E3,
E1,1-4[8:1],8-5[8:1],3-7[8:1],
6-2[8:1],1,1,8,
8,{16}1,8,{8}7/2,3,7/2,6,{16}7/2,3,
4,5,6,7,{4}8b-4[8:1],,,,3,
3,3,
{16}4,5,{8}4,{4}3/6<6[2:3],,,,,,,,3>4[2:3],
{1},{4},,,{16}3,
5,4,5,3,5,4,5,3-8[8:1],5,4,5,
{8}3,E7,{16}6x,4,5,4,6,4,5,4,6-2[8:1],4,5,4,
6,E4,,,1,8,1,8,2,7,2,7,3,6,3,6,
{32}4,5,6,7,8,1,2,3,{4}4h[16:9]/6h[16:1],6h[16:1],6h[16:1],
{8}7/3,5/1,2,6,4b,{16}6,5,{8}7,{16}3,4,
{8}1,{16}6,4,{8}7,{16}3,4,{8}2,{16}7,8,{8}6,{16}2,1,
{8}4,{16}7,1,{8}6,5/3,4/2,1,1-5[8:1],{16}5,6,
{8}7/1-3[8:1],6,1-6[8:1]
||这是一个标记~
,5,1,5,4,3,
2h[16:1]/1h[16:1],4/3,{4}1h[8:1]/2h[8:1],{8}7,{16}5,5,{8}6,{16}4,4,
{8}7,8/1,2,{16}6,6,{8}4,{16}5,5,{8}2,{16}4,4,
{8}1,2,{4}3/5s1[2:1],,1V75[2:1],
,5V31[2:1],,1,
{8}8-4b[8:1],8,{4}8,{8}2/6,{16}3,5,{8}4,{16}6,4,
{8}7,{16}5,7,{8}5,{16}6,8,{8}6,{16}7,1,{8}7,{16}8,2,
{8}8,3,{16}5,4,6,5,{8}6,4/7,3,{16}8,2,
{8}1,{16}1,3,{8}8,{16}4,5,{8}2,6/4,{16}7-3[8:1],8,7,8,
{8}7,2,{4}1xh[16:1]/2xh[16:1],{8}7/5,{16}6,4,{8}5,{16}2,4,
3,5,{8}4,7/5,6,8/4,{16}7,1,7,2,6,3,
5,4,{8}5,{4}2>5[4:1],2,{8}8-4[8:1],7,
8,2-6[8:1],,2,,8,{4}8w4[16:1],
8,{8}4x/3-8[8:1],2,3/4,5,{4}6-3[8:1],
{8}6/1,8,{4}8-4[8:1],8-6-1[8:3],{8}3-8[8:1],2,
{4}3,3-5[8:1]/6-4[8:1],3/6,7-3[8:1]/2-6[8:1],
7/2,1-5[8:1],1>4[4:1],{8}6,7,
{4}8-4[8:1],{8}8/3,2,{4}1>4[8:1]*-4[8:1],1<6[8:1]*-6[8:1],
1-5[8:1],{8}1,8,{4}7-5[8:1],{8}7/2,3,
{4}4w8[8:1],4,E8/E2/E7/E3,{8}C,E7,
E3,B5/E5/B4,,7-4[8:1]/3-8[8:1],{2}4-7[8:1]/8-3[8:1],
{4}Cf,{8}8/2-5[8:1],1,2/8-4[8:1],7,{4}8/3>7[8:1],
{8}3,5,{4}6<1[8:1],{8}6/4,3,2x-5[8:1]/8x-5[8:1],1,
{4}2/8,6-2[8:1],6/4-8[8:1],4/7<4[8:1],
{8}1,2,{4}3-8[8:1],3/4,{8}4<7[8:1]/1>4[8:1],2/6,
{4}1/4,8w4[8:1],8,2x/6x,
{8}7-5[8:1],5-8[8:1],{4}1/7,{8}2-5[8:1],8x,2-8[8:1],6,
2-4[8:1]/7<4[8:1],6,{4}2/7>4[2:1],,5h[4:1],
{8},5,{4}5h[2:1],,8h[2:1],
,1-6>4z8s4>2-7b[2:13],{1},,,,,,{4},,,E5,
C,C/B7/B2,
{2}E6/E5/E4,{4}C,B7,
{2}E6,{4}E5,E2,
{2}E3,{4}B8/B1,B7/B6,
{2}B5/B4,{4}B1/B8,E1,
{2}E3/E7,{4}B3/B2,B7/B6,
{2}C/E1,{4}B5/E5/B4,E7/B6/B7/B3/E3/B2,
{2}B8/E1/B1,{4}E7,C,
E3,E4,E5,E6/E4,
E3/D7,8h[4:3]/2>6>2[2:3]
||这是一个标记~
,,,,B8,
B6,7>5[1:1],
{1}7h[1:1],
{4},7,,7>8>1>2-6>5>4>3[4:7],
{32},,,,,,,,,4h[2:3],{1},{4},,,{16}6,
,,,5,,,,,,,{4}3/4,
,3/2,,2/1,
8,7s3[4:3],,,,1,
2V48>1-5[4:5],2,
{1}6h[4:3],
{4}6,6h[2:1],,1,
,1-5b[4:5],,,,,,A6,
A7,A8,,Ch[4:5],
,B7/E7,,B5/E6,
{8},,5,4,6,3,5,4,
6,3,5,4,6,3,{16}5,5,{8}4,
6,3,5,4,6,3,5/4h[8:1],6,
4/5h[8:1],3,2/7,8/1,8/1,8/1,E3,E7,
C,E5,3/4x,2,3/4,5,4/3,2,
1/8,7,6/5,4,6/5,7,{16}4,4,{8}5,
6/4,7/3,4,5,6,3,5/4h[8:1],6,
4/5h[8:1],3,E7,E3,C,E1,E8/E2,E7/E3,
E6/E4,D5,7/3-6[8:1],7,7,7,7/4-2[8:1],7,
7,7,7/1-5[8:1],7,7,7,{16}8,4,{8}8,
1/3,2,3/6-1[8:1],3,3,3,3/8-5[8:1],3,
3,3,3/6-1[8:1],3,3,3,3/2v5[8:1],3,
3,3,6/3,2,4/5,7,6/5,2,
3/4,6,5/4,7,8/1,3,{16}4,5,{8}4,
5/4,5/4,{16}4,5,4,5,3,6,3,6,2,7,2,7,
1,8,1,8,2,1,3,8,4pp6[16:3],7,5,6-1[16:3],,,,,{8}8,
8,{4}7x/2q6q4[2:1],,,,5<3[8:3],
{8},3v6[16:3],,,,,{4}1-6[6:1]/5v2[16:3],
,,2-6[12:1],
1-5[12:1],8-4[12:1],7-3[12:1],
1,8-4[8:1]/3<6-2[2:1],,,,5/4-7[12:1],
{8},8p5[8:3],,,,,{4}3<2[2:1],
{8},,,,,,5,
5,4,4,6/3,7/2,
{16}1,8,{8}1,{4}8/1b>4b[2:1],E8,E7,
E6,5<8[2:1],E4,E3,
E2,1b-6-3b[2:1],E8,C,
E5,7-3q8[2:1],E2,C,
E4,2,2,7,
7,{16}1,8,{8}7/2,6,7/2,3,{16}7/2,6,
5,4,3,2,{4}1-5[8:1],,,,6,
6,6,
{16}4,5,{8}4,{4}3/6>6[2:3],,,,,,,,6/3>3[2:3],
{1},{4},,,{16}7,
3,4,3,7,4,5,4,7-4[8:1],5,6,5,
{8}7,C,{16}2,6,5,6,2,5,4,5,2-5[8:1],4,3,4,
{8}2,C,{16}8,8,8,8,8,8,8,8,8,8,8,8,
8-4[2:1],8,8,8,{4}8h[2:1],,,1>4[8:1],
7,{2}Ch[2:1],
{4}4h[8:1],4h[8:1],3h[8:1],3h[8:1],
2/4q6[8:3],1b>3[8:1],1x,{8}4x,5/6,
{4}6/7qq4[8:7],1>3[8:1],1,8-3[8:1],
8x,{8}2x,7/6,{4}6/5-2[8:1],{8}8-6v5-3[4:3],7,
{4}3b,2xh[8:1],1xh[8:1],1-5[8:1],
{8}1,6,{4}6pp1[2:1],,E3/B2/B3,
,1/8<7-5[4:1],,C/B5/B4,
{8}1/8,2/7,{4}3h[16:1]/6h[16:1],{8}4/2,{16}3,4,{8}3,{16}6,4,
5,3,{8}4,2/3,1/2,8/1,{16}7,5,{8}6xh[8:1],{16}8,6,
1,7,2,8,{8}3,{16}6,4,{8}6,{16}3,5,4,6,{8}2,
{16}6,5,7,5,{8}7,4/6,3/5,{16}4,6,5,7,{8}6,
7b/8b-4b[8:1],1b,{4}2b/8b,{8}5/3,{16}6,5,{8}7,{16}1,8,
2,8,{8}3,7/4,6/5,{16}7,1,{8}8,{16}3,7,4,6,
5,6,{8}4,2/Ch[8:7],2,2,2,2,2,
2,2,{16}1,8,3,6,2,7,4,5,{4}4v7[8:1]*>1[8:1],
4,{8}8x/6x,5,4/3>8[8:1],2,3/7,7,
6,6,{4}5-7[8:1],{8}5/4-2[8:1],3,4/5-7>2-4[4:1],7,
{4}4,1x-5[8:1],6/1>4[8:1],1/7,
{8}5-2[8:1]*-8[8:1],4/6,{4}5-1[8:1],5,{8}2v5[8:1]/8v5[8:1],3/7,
{4}8/2,{24}4<7[8:1],3,{6}2,1x,{12},{4}8/3-5[8:1],
{8}3/6,7,8/2,7,6/5,3,5/4,3/4,
{4}8bv5b[8:1],4b/8bv3b[8:1],6b,{8}7,5/6,
{4}2/8h[8:1],{8}8h[8:1],3,{4}5/7,{16}2v5[8:1]/8v5[8:1],7/3,{8}6/4,
{4}2/8,{8}2-5[8:1],1-6[8:1],2,1<7-4[2:1],{4}3,
{8}3v8[8:1],2,{4}3,6<1[8:1],{8}6b/1b,2b,
{4}8b/3b<6[8:1],{24}3/2,1,8,7,,,{4}7-4[8:1],7/3>8[8:1],
{8}3/5,7,{4}7-2[8:1],7/4,{8}4-2-8[8:1]/8-6-4[8:1],7/3,
{4}8/4,2/6-1[8:1],6/2-5[8:1],2/6>5-8[8:1],
{8}6/4,3,{4}7/2,{8}2-5[8:1],6-1[8:1],2-7[8:1],6-3[8:1],
2-6[8:1],6<3[8:3],,,,,{4}C,
{8}4,3,{4}6h[4:3],,3h[4:1],
{16},,,,8,7,6,5,3,4,5,6,7/4x,8,1,2,
{8}3/7-4[8:1],6,7/3,2,1>4[8:1],8,{16}7,6,{8}5,
E3,C,{16}6x,7,8,1,3,2,1,8,{4}7/5-1[8:1],
5/4-8[8:1],{8}4/3,2,1-6[8:1],6-2[8:1],1,5x,
7x,8x,{16}1x,8,7,6,2,3,4,5,{4}7-4[8:1]/6-1[8:1],
7/6,{8}E7,E5,E3,E1,{16}B8/B1,B7/B2,{8}B6/B3,
3x/6x<1[8:1],7/2>5[8:1],6,2,1x,2,1h[8:1],4,
8h[8:1],3,7,3x/6x,{16}3x/6x,4x,5x,4x,{8}3v8[8:1]/6xv1[8:1],5x/4x,
6x/3x,A1f/A8f,{16}7,6,5,4,{8}3/1,2,3-8[8:1],4-7[8:1],
3,4,{16}1,2,3,4,{8}5/6,8/7,{16}5/6-1[8:1],4,{8}3-8[8:1],
6,3,{16}5,6,7,8,4,3,2,1,{4}8w4[8:1],
8b,{8}E3/B3,B7/B6,E1,C,B6/B5,E2/A2,
E5,B1,{16}8,7,6,5,7,6,5,4,{4}7-4[8:1]/3-8[8:1],
3b/7b,{16}1,2,3,4,2,3,4,5,{8}6/3b,2,
1,8,{4}1/8<5[4:1],{8},4,{4}3>7[4:1],
{8},5V71[8:3],,5,{2}3-8-6[4:1],
{4},5/4>1[4:1],1<6[4:1],6>3[4:1],
3>8[4:1],8<5[4:1],5>2[4:1],2<7[4:1],
7-4[4:1],4-1[4:1],1-6[4:1],6-3[4:1],
3-8[4:1],8-4[8:1],7-3[8:1],6-2[8:1],
5<8[8:1],5/4,1-5[8:1],8/1,
1-6[8:1],1/2,4-8[8:1],4/5,
4-7[8:1],4/3>1[8:1],3/8x-4[8:1],8/5-1[8:1],
5<7[8:1],5>2[8:1],5-8[8:1],5-2[8:1],
5,{8}8,8,6-8[8:1],4,B6/A6,1,
2-5[8:1],6,A2/D3,7,8-4[8:1],2,A8/E8,3,
3,2/4,{16}1>4[8:1],,,8,{8}1,7,{16}6<1[8:1],,,5,
{8}6,4,{4}6b/2b,5b/1b,4b/8b,
7b/3b,{8}2,2,{16}3,5,4,6,{8}5,7,
{16}7,5,6,4,{8}5,4/3,{16}2,6,1,5,{8}8,8,
{16}4,1,5,2,6,7,8,2,3,4,7,8,1,3,2,1,
6,5,6,4,5,3,8,1,7,2,6,2,{8}5,4,
{4}5-2[8:1]*-8[8:1],Cf,
E
