&title=永イ夜ハ空ヲ歩キ。
&artist=篠螺悠那
&first=0
&des=儂卜共ニ踊リ込厶。
&lv_5=14
&inote_5=(150)
{1},
{16}3h[8:3],,,,,,4,,25,,,,3,,,,
{16}3h[2:1],,,,,,,,4,,25,,3-5[8:1],,,,
{16}8h[8:3],,,,,,2,,37,,,,8,,,,
{16}8h[2:1],,,,,,,,2,,37,,8,,,,
{16}6h[8:3],,,,,,5,,74,,,,6,,,,
{16}6h[2:1],,,,,,,,5,,74,,6-4[8:1],,,,
{16}1h[8:3],,,,,,7,,62,,,,1bpp5[4:3]/Ch[1:1],,,,
{16},,,,,,,,,,,,,,,,
{16}4b/8b,,,,,,,,,,,,,,3^1[8:1]/6-4[8:1],,
{16},,36,,,,,,,,2v3[8:1],,3-5[8:1],,,,
{16}7b,,,,,,,,,,,,,,7-4[8:1]/4^1[8:1],,
{16},,74,,,,,,,,15,,1-5[8:1]/5,,,,
{16}1b/8b,,,,,,,,,,,,,,6^8[8:1]/3-5[8:1],,
{16},,63,,,,,,,,7v6[8:1],,6-4[8:1],,,,
{16}2b,,,,,,,,,,,,,,2-5[8:1]/5^8[8:1],,
{16},,25,,,,,,4,4,5,,3V52[4:1]/7V15[4:1],,,,
{16}3b/7b,,,,,,5-1[8:1],,2-5[8:1],,,,,,7-1[8:1],,
{16}4,,3-5[8:1],,,,,,,,38,,3-8-2[4:1]/8-4-7[4:1],,,,
{16}3b/8b,,,,,,8-4[8:1],,3-8[8:1],,,,,,7-4[8:1],,
{16}1,,2-8[8:1],,,,,,,,26,,2V84[4:1]/6V47[4:1],,,,
{16}6b/2b,,,,,,4-8[8:1],,7-4[8:1],,,,,,2-8[8:1],,
{16}5,,6-4[8:1],,,,,,,,61,,6-3-7[4:1]/1V38[4:1],,,,
{16}6b/1b,,,,,,1xh[8:1],,5xh[8:1],,{32}E7,E6,E5,E4,{16}E3,,8xb,,
{16},,1,1,7,,26,,17,,35,,2,6,2,6,
{16}5x/E3f,,7,,4/B7,,3,,5/B3,,7,,4/E7,,3,,
{16}5/D2,,8,,4/A7,,2,,5/A3,,8,,4/D6,,2,,
{16}5/B3f,,7,,4/E6,,3,,5/E2,,7,,4/B7,,3,,
{16}5/D2,,8,,4/A7,,2,,5/A3,,8,,7,3,7,3,
{16}4x/E7f,,2,,5/B2,,6,,4/B6,,2,,5/E3,,6,,
{16}4/D8,,1,,5/A2,,7,,4/A6,,1,,5/D4,,7,,
{16}4/B6f,,2,,5/E4,,6,,4/E8,,2,,5/B2,,6,,
{16}8x^5[8:1]/4x^1[8:1],,,,8b/4b,,,,26,,26,,1,7,2,6,
{16}3h[8:1]/5x,,1,,2/4h[8:1],,8,,3h[8:1]/5,,7,,24,,18,,
{16}3h[8:1]/5,,6,,2/4h[8:1],,7,,3h[8:1]/5,,8,,2/4h[8:1],,6,,
{16}7h[8:1]/5,,1,,6h[8:1]/4,,1,,3/5h[8:1],,1,,64,,12,,
{16}7/5h[8:1],,1,,6/4h[8:1],,1,,3h[8:1]/5,,1,,8,2,7,3,
{16}6h[8:1]/4x,,8,,7/5h[8:1],,1,,6h[8:1]/4,,2,,75,,81,,
{16}6h[8:1]/4,,3,,7/5h[8:1],,2,,6h[8:1]/4,,1,,7/5h[8:1],,3,,
{16}1^4[8:1]/2b^7[8:1],,,,12,,,,6,5,7,4,38,,8-4[8:1],,
{16},,5,,1-5[8:1],,,,8,,8,,5,6,3,4,
{16}2xbqq7[4:10]/E5f,,,,,,,,,,,,
{16},,,,,,,,,,,,
{16},,,,,,,,,,,,
{16},,,,,,,,,,,,
{16}6xqq3b[4:10],,,,,,2,,2,,,,
{16}E2,,,,,,1,,1,,,,
{16}E1,,,,,,8,,8,,,,
{16}E8,,,,,,7,,7,,,,
{16}5h[2:1]/2,,,,B3,,E5,,D4,,,,
{16}3h[2:1]/7,,,,E7,,B5,,D6,,,,
{16}7h[2:1]/4,,,,D2,,B1,,E3,,,,
{16}1h[2:1]/5,,,,2,,4,,5-1[8:1],,7,,
{16}8h[2:1]/5,,,,B6,,E5,,D6,,,,
{16}2h[2:1]/6,,,,E3,,B4,,D4,,,,
{16}6h[2:1]/5,,,,D8,,B8,,E7,,,,
{16}12,,,74,,,26,,1,7,1,7,
{16}2h[8:1]/6x,,,,2h[8:1],,1,,2h[8:1],,1,,
{16}6h[8:1]/3,,,,6h[8:1],,8,,6h[8:1],,8,,
{16}4h[8:1]/6,,,,4h[8:1],,1,,4h[8:1],,1,,
{16}3x/4x,,,,7,,5,,4-8[8:1],,2,,
{16}7h[8:1]/4,,,,7h[8:1],,8,,7h[8:1],,8,,
{16}3h[8:1]/6,,,,3h[8:1],,1,,3h[8:1],,1,,
{16}5h[8:1]/3,,,,5h[8:1],,8,,5h[8:1],,8,,
{16}26,,26,,3,5,3,5,2,6,1,7,
{16}2b^4[16:1],,,12,,,1^4[12:1],,,18,,,8>4[8:1],,,78,
{16},,7>4[6:1],,,67,,,5b-8[8:1],,,,4b-1[8:1],,,,
{16}7b^5[16:1],,,87,,,8^5[12:1],,,81,,,1<5[8:1],,,21,
{16},,2<5[6:1],,,23,,,4b,,4,,3,5,3,5,
{16}2,1,3,8,4,7,,65,,,48,,3,4,,25,
{16},,6,4,7,3,8,2,,34,,45,,56,,7,
{16}7,8,6,1,5,2,4,3,,,51,,6,5,,7b/4b,
{16},,3,5,2,6,1,7,,2,2,1,3xb/8xb,,,,
{16}6-8[8:1],,6,,5-2[8:1],,5,,6-1[8:1],,6,,5-3[8:1],,5,,
{16}7-4[8:1],,7,,2-6[8:1],,2,,8-3[8:1]*-5[8:1],,8,,,,,,
{16}6-1[8:1],,6,,3-7[8:1],,3,,5-2[8:1],,5,,8,,8,,
{16}1,7,2,6,1,,5,4,5,,36,,1,7,2,6,
{16}3-1[8:1],,3,,4-7[8:1],,4,,3-8[8:1],,3,,4-6[8:1],,4,,
{16}2-5[8:1],,2,,7-3[8:1],,7,,1p5[8:1]*q5[8:1],,1,,,,,,
{12}7b,5,6,2,4,3,8,6,7,1,3,2,
{16}8bw4[8:1],,,,8b,,,,1xh[64:1],1xh[64:1],1xh[64:1],1xh[64:1],B8/B7/B6/B5f/B4/B3,,,,
{16}2x-8[8:1]/7,,3,,6-4[8:1],,4,,1,,1,,2-8[8:1]/7,,3,,
{16}6-2[8:1],,4,,1,,1,,8^3[8:1]*^5[8:1],,35,,8b,,,,
{16}2-5[8:1]/5,,1,,6-3[8:1],,8,,7x,,7x,,2^5[8:1]/5,,1,,
{16}6p1[8:1],,8,,7x,,7x,,26,,26,,4,5,3,6,
{16}7x-1[8:1]/2,,6,,3-5[8:1],,5,,8,,8,,7-1[8:1]/2,,6,,
{16}3-7[8:1],,5,,8,,8,,1^6[8:1]*^4[8:1],,64,,1b,,,,
{16}7-4[8:1]/4,,8,,3-6[8:1],,1,,2x,,2x,,7-2[8:1]/4,,8,,
{16}3-7[8:1],,4,,6-3[8:1],,5,,8,,8,,2,6,1,7,
{16}2-4[8:1]/6x,,4,,1-5[8:1],,5,,8-6[8:1],,6,,2-4[8:1],,4,,
{16}1-5[8:1],,5,,8-6[8:1],,6,,4,,2,,35,,17,,
{16}2-4[8:1]/6,,4,,1-5[8:1],,5,,8-6[8:1],,6,,1-5[8:1],,5,,
{16}2-4[8:1],,4,,1-5[8:1],,5,,8,,6,,7,3,8,2,
{16}7-5[8:1]/3x,,5,,8-4[8:1],,4,,1-3[8:1],,3,,7-5[8:1],,5,,
{16}8-4[8:1],,4,,1-3[8:1],,3,,5,,7,,64,,28,,
{16}7-4[8:1]/3-8[8:1],,,,3b/7b,,,,{32}1,2,3,4,5,6,7,8,{16}1b-6[8:1]/5,,,,
{16}7-3[8:1],,8,,2-5[8:1],,8,,5,,8,,4,6,3,7,
{16}2b,2,8,8,2,2,8,8h[16:3],,,{24}7,6,5,{16}4b/8b,,,,
{16}25,,4,4<8[8:1],,12,,34,,,5,5^2[8:1],,71,,56,
{16},,4,4<8[8:1],,78,,14,,,5,5h[8:1],,1,4,6,
{16}73,,5,5>1[8:1],,87,,65,,,4,4^7[8:1],,28,,43,
{16},,5,5>1[8:1],,12,,58,,,4,4,3,5,2,6,
{16}1b,,7,5-3[12:1],6,4,1,1,,,2,4-7[12:1],3,5,8,8,
{16},,7,5-1[12:1],6,4,1,1,,,2,8,5,7,1,4,
{16}8b,,2,4-6[12:1],3,5,8,8,,,7,5-2[12:1],6,4,1,1,
{16},,2,4-8[12:1],3,5,8,8,,1,1,6,4,8,3,5,
{16}Cfh[4:1],,,,8b>4qq5^7[4:9],,,,,,,,,,,,
{16},,,,,,,,,,,,,,,,
{16},,,,,,,,,,{32},D3,A3,D4,{16},,,,,
E
