&title=第六感
&artist=Reol
&first=0.055
&des_1=Yuka
&des_2=Yuka
&des_3=Yuka
&des_4=Yuka
&des_5=Yuka
&lv_5=13
&des_6=Yuka
&des_7=Yuka
&des=Yuka
&inote_5=(134)
{1},
{2},
{8}
5,5-8z4[8:5],,3,3,,,,
2,,3,,4,,5,,
6,6pp7<4[8:3],,2,2h[4:2],,,,
4,,5,,6,,7,,
8,8<8[8:4],,3,3h[4:2],,,,
7,,8,,1,1-4>3[4:1],,8,
,7,,6,5,6<1[4:1]/4,,E3,
E4,E5,,4,4-1[8:1]*-7[8:1],,4,,
{8}
8<4[8:2],,4>8[8:2],,8,,4,,
2-5[8:4]/5,,E6,,C,,E2,,
8/4<8[8:2],,8>4[8:2],,4,,8,,
7-4[8:2]/4,,3,2,1h[8:2],,6,7,
1/8V24[8:2],,4V68[8:2],,8,,3,,
1-5[8:1]/2-4[8:1],12,,,7-5[8:1]/8-4[8:1],78,,,
3,2q6[8:2]/4,,6<2[8:2],,2v4[8:1],,5h[8:3],
,,4h[8:2],,3h[8:2],,2,,
{8}
2h[8:1]/4,4,3h[8:1]/5,5,4h[8:1]/6,6,5h[8:1]/7,7,
6h[8:1]/8,8,7h[8:1]/1,1,8h[8:1]/2,2,1h[8:1]/3,3,
{16}
3,4,2,5,1,6,8,7,
2,1,3,8,4,7,5,6,
{8}
5x-2[8:1],5xqq7b[8:2],,,,1x,1x-3[8:1]/8x-4[8:1],,
{16}
1b-5[8:1]/8b-6[8:1],,,,1b/8b,,,,
4/7h[16:3],,,6h[16:3],,,5,,
{16}
3/4h[8:1],,2,,3/4h[8:1],,2,,
3x/4xqq8[16:4],3x/4x,,5x,,,,,
7x-5[8:1],,,,78,,1,,
4x>1[8:1]/2x,,3,,45,,6,,
8/7-4[8:1],,8/7pp3[8:2],,,,,,
,,,,1x-7[8:1]/2x-6[8:1],,,,
1b-5[8:1]/2b-4[8:1],,,,1b/2b,,,,
3h[16:2],,5,4h[16:3],,,6,,
{8}
7/8h[8:1],6,7/8qq7[8:1]*pp1[8:1],6,,,,1<3[8:3]/2,
,3,2,1,8h[8:2],,5,7/8>6b[8:3],
,6,7,8,1h[8:2],,3,2h[8:3]/4,
,3,4h[8:2],5,6h[8:2],,8,1-4[8:1]/7,
{16}
,,E8/B8/B7,,6,5x,,3,
4xpp5[8:2],,C,,2,,2,,
{16}
1<6[8:1],,,,1/3h[16:5],,,,
,4,4,,53,,C,,
3/5s1s5[8:4],,C,,,,,,
,,,,A5f/D5/D6,,,,
4-7[8:1],,,,4/2h[16:5],,,,
,1,1,,28,,1,,
8/2h[8:2],,4,,7h[8:2],,5p8[8:1],,
1h[8:2],,,,,,,,
8q5>1[16:5],,,,8/6,,,,
,7s3[16:3],7,,3s7b[8:2],,,,
,,C,,3xh[16:1],,3xh[16:1],,
5xw1[8:1],5x,5xh[16:1],,,,,,
3x/7x,,4,,5,,4/6h[8:2],,
,,5,,6h[8:4]/5p4>5[8:5],,,,
,,,,,,,,
,,,,C,,,,
{8}
3h[8:2]/4,,5,6,7h[8:2]/8q2[8:2],1,,,
4-7[8:1],4,3-8-5-2[8:3],3,,,,,
1xh[8:2]/2x,,3,4,5h[8:2]/6p4[8:2],7,,,
3-8[8:1],3,4-7-2-5[8:3],4,,,,,
2,2h[8:2],,3,4h[8:2],,5,6h[8:2],
,8,8V61[8:3],,2-5[8:1],3,2,,
48,3,24,1,18,7,46,3,
4>5[8:2]/5p4[8:2],6,45,,,,2b/7b,,
1-6-3-8-5-2[8:6],,A6/E6/D6,,,,A7/D7/E7,,
7-4[8:1],,8,,1-6[8:1],,2,,
3-5-7-1-3-8[8:5],,A7/E8/D8,,,,7,7h[8:2],
,8,17,2h[8:2]/6,,1,8-4[8:1]/3,,
18,,5/3h[8:1],5,6/4h[8:1],6,7/5h[8:1],7,
8/6h[8:1],8,1/7h[8:1],1,2/8h[8:1],2,3/1h[8:1],3,
{16}
2,1,3,8,4,7,5,6,
4,5,3,6,2,7,1,8,
{32}
1,2,3,4,5,6,7,8,
1,2,3,4,5,6,7,8,
{16}
1bx/5bx,,,,1x-5[8:1]/8x-6[8:1],,,,
1b-3[8:1]/8b-4[8:1],,,,1b/8b,,,,
2h[16:3]/5,,,3h[16:3],,,4,,
56,,47,,56,,47,,
5qq1[16:4]/6-8[12:1],56,,5x/6x,,,,,8>3[8:1]
,,7,,86,,5,,
5/4<7[8:1],,3,,4/2-6[8:1],,1-5[8:1],,
2x-4[8:1],,1x-7[8:1],,2x,,1x,,
{32}
3x,4x,5x,6x,7x,8x,1x,2x,
{16}
3x-1[8:1]/4x-8[8:1],,,,3b-7[8:1]/4b-6[8:1],,,,
3b/4b,,,,1h[8:1],,7,2h[16:3],
,,8,,12,,38,,
1qq5[8:2]/2q5[8:2],,38,,,,,,
,,,,6-2[8:1]/4-8[8:1],,37,,
,,,,5xp8[8:1]/3xq8[8:1],,2x/6x,,
,,,,
{32}
1x,2x,3x,4x,5x,6x,7x,8x,
1x,2x,3x,4x,5x,6x,7x,8x,
{16}
1bx/Cf,,,,1x-5[8:1]/8x,,,,
1bx/7x-4[8:1],,,,7bx/2x-6[8:1],,,,
2bx/8xw4[8:1],,,,{64}8bx,B8f,,,,,,,,,,,,,,,
{16}
3x/4x,,25,,34,,25,,
4/3qq8[8:2],34,,3x/4x,,,,,
7-5[8:1],,6,,78,,1,,
2/4-8[8:1],,3,,45,,6,,
17,,26,,35,,4,,
5-2[8:1]/6-1[8:1],,,,56,,,,
{16}
38,,46,,71,,34,,
28,,45,,26,,4xqq5[16:3]/8xqq1[16:3],4x/8x,
,,,,,,,,
1xs5[8:1]/5x,,1x/5x,,,,,,
,,3h[8:5]/E4,,E5,,E6,,E7,,
,,6,,6h[8:7],,
,,E6,,E5,,E4,,
E3,,,,2,,2h[8:5],,
,,D5,,D6,,D7,,
D8,,,,18,,27,,
,,C,,3,4x,,6,5x,,E4,,E5,,E6,,
,,,,,,,,
,,,,,,,,
E
