&title=メモリー
&artist=kyiku
&first=0.11
&des=fullower
&lv_7=13
&inote_7=(96)
{4},
{8}
6p3[2:1],E1,,,,,,,
{4}
1h[4:1],{16},,,,Ch[4:1],,,,,,,,
{8}
8b-5[4:1]/E5f,,,,1-4[4:1],,,,7^2v4[2:1],,,,,,,,
2b-7[4:1]/E5f/B4h[16:1]/B5h[16:2],,,,6-3[4:1],,,,7^2v4[2:1],,,,,,,,
{8}
1b^4[4:1]/E5f/B4h[16:1]/B5h[16:2],,,,5^8[4:1],,,,2qq6[2:1],,,,5h[4:1],,,,
7b^2[4:1]/E5f/B5h[16:1]/B4h[16:2],,,,3^6[4:1],,,,1pp5[2:1]*qq5[2:1],,,,,,,,
{32}2b>6b[4:1]/B7f,C,B3,,,,
{16}
1hx[4:1],,,,,
1pp1[4:1],,7,7,,,,,
5-7[8:1],,2,2,,1,,,
2>6b[4:1],,1,1hx[4:1],,,,,
{32}B7f,C,B3,,,,,,
{16}
5h[4:1],,,,
1pp1[4:1],,7,7,,,,,
5,,2>4b[8:1],2,,1hx[8:1],,,
1,,2,2,,7<2b[8:3],,,
{16}
1h[16:7]/A7f/E8/E7/B7/D7/D8,,,,,,,,
1pp1[4:1],,7,7,,,,,
5-7[8:1],,2,2,,1,,,
3-1[8:1],,5,5,,6,,,
{32}2b>8b[8:3]/B7f,C,B3,,
{16}
1hx[2:1],,,,,,,,,,1,,,,
5-7[8:1],,2,2,,1,,,
4w8[8:1],,,,4,,,,
{8}
2-4[8:1]/E6f,1,7q8[4:1],8,3,,1-5[8:1],,
7-5[8:1],8,2p1[4:1],1,6,,8^5[8:1],,
8^3[8:1]/B4f,,8w4[8:1],,8,,
3h[8:1]/5h[8:1],,
2-4[8:1],1,7>5qq6[2:1],8,,,,,
{4}D3f/E3h[2:1],,8-5[12:2],,
{4}D7/E7h[2:1],,1-4[12:2],,
{8}8h[8:1]/B4f,,1h[8:1]/7h[8:1],,2h[8:1]/6h[8:1],,3h[8:1]/5h[8:1],,
4h[16:3],5,2/4h[16:3],3,4h[16:3]/6,5,2/4h[16:3],3,
{8}6/4,7/3,8/2,1,3/5,2/6,1/7,8,
{8}
4h[8:1],6h[8:1],5h[8:1],7h[8:1],8^3[12:2],,E6h[8:1],,
4h[8:1],6h[8:1],5h[8:1],7h[8:1],8-2^3[12:2],,E6h[8:1],,
4h[8:1],6h[8:1],5h[8:1],7h[8:1],E8h[8:1],E1h[8:1],E2h[8:1],E3,
4h[8:1],6h[8:1],5h[8:1],7h[8:1],8^3[12:2],,E6h[8:1],,
5h[8:1],3h[8:1],4h[8:1],2h[8:1],1^6[12:2],,E4h[8:1],,
5h[8:1],3h[8:1],4h[8:1],2h[8:1],E2h[8:1],E1h[8:1],E8h[8:1],E7,
5h[8:1],3h[8:1],4h[8:1],2h[8:1],1^6[12:2],,E4,
{4}5bxpp3[8:5],,,,{8},
{4}1b<5[4:1],5>2[4:1],2<6[2:1],E8h[8:1],6>2[2:1],E4h[8:1],2<7[4:1],7<3[4:1],
{4}3b>7[4:1],7<4[4:1],4>8[2:1],E2h[8:1],8<4[2:1],E6h[8:1],4>1[4:1],1<5[4:1],
{4}5b>1[4:1],1<6[4:1],6>2[2:1],E4h[8:1],2<6[2:1],E8h[8:1],6>3[4:1],3>7[4:1],
{4}7b<3[4:1],3>8[4:1],8<4[2:1],E6h[8:1],4>6[8:5],,,,
{8}2/7,2qq7[2:1]/7pp2[2:1],,,,,,,
{8}3/5,4,5/7,6,3^8[8:1]/5^8[8:1],,3/5,,
{8}1/2,3,7/8,6,4-8[8:1]/3-1[8:1],,4/3,,
{8}7/5,6,4/2,3,6^1[8:1]/5-2[8:1],,6/5,,
{8}3/8,3qq5[2:1]/8pp6[2:1],,,,,,,
{8}4/7,8,1/3,2,1-3[8:1]/8-6[8:1],,1/85,,
{8}2/7,3,4/8,7,2^7[8:1]/6^3[8:1],,2/6,,
{8}1/5,2,3/7,6,4-1[8:1]/5-8[8:1],,4/5<4[1:2],,
{4}E5,E4,E3,E2,E5,E6,E7,E8,
{1},
{8}
7-5[8:1]/E4f,8,2pp1[4:1],1,6,,8-4[8:1],,
2-4[8:1],1,7qq8[4:1],8,3,,1^4[8:1],,
1^6[8:1]/B5f,,1w5[8:1],,1,,
6h[8:1]/4h[8:1],,
7-5[8:1],8,2<4pp3[2:1],1,,,,,
{4}D7f/E7h[2:1],,1-4[12:2],,
{4}D3/E3h[2:1],,8-5[12:2],,
{8}1h[8:1]/B5f,,8h[8:1]/2h[8:1],,7h[8:1]/3h[8:1],,6h[8:1]/4h[8:1],,
5h[16:3],4,7/5h[16:3],6,5h[16:3]/3,4,7/5h[16:3],6,
{8}E5,,,,,B2hf[8:3]/E3h[8:3]/E2h[8:3],,,
{8}
5h[8:1],3h[8:1],4h[8:1],2h[8:1],1^6[12:2],,E4h[8:1],,
5h[8:1],3h[8:1],4h[8:1],2h[8:1],1-7^6[12:2],,E4h[8:1],,
5h[8:1],3h[8:1],4h[8:1],2h[8:1],1^6[12:2],,E4h[8:1],,
5h[8:1],3h[8:1],4h[8:1],2h[8:1],E2h[8:1],E1h[8:1],E8h[8:1],E7,
4h[8:1],6h[8:1],5h[8:1],7h[8:1],8^3[12:2],,E6h[8:1],,
4h[8:1],6h[8:1],5h[8:1],7h[8:1],8-2^3[12:2],,E6h[8:1],,
4h[8:1],6h[8:1],5h[8:1],7h[8:1],8^3[12:2],,E6h[8:1],,
4h[8:1],6h[8:1],5h[8:1],7h[8:1],E8h[8:1],E1h[8:1],E2h[8:1],E3,
{4}4h[8:1]/6h[8:1],3h[8:1]/5h[8:1],4h[8:1]/6h[8:1],3h[8:1]/5h[8:1],
{4}5h[8:1]/7h[8:1],2h[8:1]/4h[8:1],{8}5/7,8,2/4,1,
{4}4h[8:1]/7h[8:1],2h[8:1]/5h[8:1],4h[8:1]/7h[8:1],2h[8:1]/5h[8:1],
{4}4h[8:1]/8h[8:1],1h[8:1]/5h[8:1],{8}4/8,6,1/5,3,
{8}5h[8:1]/6,7,5h[8:1]/6,8,5h[8:1]/6,7h[8:1],8h[8:1],1,
{8}4h[8:1]/3,2,4h[8:1]/3,1,4h[8:1]/3,1h[8:1],8h[8:1],7,
{8}5/6,2/8,4/6,1/8,3/5,1/8,3/4,1/7,
{8}5/6,3/4,1/2,7/8,
{8}4^1[8:1]/5^8[8:1],1/8,4/5,,
{8}5pp4[8:3],,3,3,,2<6[4:1],,6<2[4:1],,4,,5,
{8}7-5[8:1],8,1,2-4[8:1],1,8,7-3[8:1],6,5,A1,,,
{8}3>6[1:1]/6h[8:1],,,5h[8:1],,,4h[8:1],,,3h[8:1],,,
{8}6<3[1:1]/3h[8:1],,,4h[8:1],,,5h[8:1],,,6-3[8:1],,,
