&title=RE;DIEIN
&artist=HAYAKO
&first=0.743
&des=AL∅NE/M∀RK
&lv_6=14+
&des_6=AL∅NE/M∀RK
&inote_6=
(222){4},{8},,,,,,,,,,,,,,3h[8:1]/4h[8:1],
,,4/3h[8:3],,4h[8:3],,,{4}3h[4:1],
4,{8}6h[8:1]/5h[8:1],,,5/6h[8:3],
,5h[8:3],,,{4}6h[4:1],5,
{8}3h[8:1]/5h[8:1],,,4/3h[4:1],,5h[8:3],{4}3,
4,3/5,{8}6/4,5,4,3,
{4}2/8-5[2:1],{8}4,4,3,2,{4}1b,
{8}4/2z6[1:1],4,,6,,5h[8:1],,5h[8:1],
,5h[8:1],,,5/7s3[1:1],5,,3,
,4h[8:1],,4h[8:1],,4h[8:1],,,5/3s7[4:3],
5,,7,,6h[8:1],,6h[8:1],
,,{4}6-3[8:9],,,,,,,2h[4:1]/3h[8:1],
4h[8:1],5/3,3h[4:1]/4h[8:1],
5h[8:1],6/4,4h[4:1]/5h[8:1],6h[8:1],
7/5,6<2<6[8:11],,3-5[8:1],
{2}3,{4}5-3[8:1],5,
,7/3,{8}6/4,5,4/2,3,
2/8x,1,{4}6x/8z4[8:3],,,7h[4:1]/6h[8:1],
5h[8:1],4/6,6h[4:1]/5h[8:1],
4h[8:1],3/5,5h[4:1]/4h[8:1],3h[8:1],
2/4,3>7>3[8:11],,6-4[8:1],
{2}6,{4}4-6[8:1],4,
,2/6,{8}6/8,1,2/7,3,
4/8,5,{4}6-3[4:1]/7s3[4:1],{8},,,,2/5,
{16}3,4,{8}3,{16}6,5,{8}6,{16}3,4,{8}2bh[2:1],8b,
8b,8b,{4}8b,{8}7/4,{16}6,5,{8}6,{16}3,4,
{8}3,{16}6,5,{8}7bh[2:1],1b,1b,1b,{4}1b,
{8}4-8[8:1],3,4,5,6,7,8v3[8:1],1,
8,1,2,3,{4}4/6h[4:5],E5,
E6,E7,{8},,,,3,
B4,,7,,,6,B5,
,2,,,{4}2h[4:1],5h[4:1],
4h[4:3],7h[2:1],,,{2}5/6h[1:2],
{4}3<5[8:1],3,
,5>3[8:1],{2}5,
{4}2-6v4[2:1],6,,,{1}5s1-5-7[4:11],
{2},4z8-4-2b[4:5],
{1},,,,,{4},,{8}7/6,
7/6,7/6,7/6,
{4}7b/6b,{8}2/3,2/3,2/3,2/3,{4}2b/3b,
1-6[4:1]*-5[4:1],,,4,
2h[4:1],6,{2}7-3[4:1]*-4[4:1],
{4},2,6h[4:1],4,
5-2[4:1]*-1[4:1],,,8,
6h[4:1],2,{2}3h[4:5]/5-8[4:1],
{4},8-5[4:1],,,3<6[4:1],
2,1,8>3[4:1],
7,6,5>2[4:1],6,
7,{8}8h[4:1],{32}1,2,3,4,{8}5,{32}2,3,4,5,{8}6,7b/8b,
1b/2b,7-3[8:1],7,3,2-5[8:1],1,2,7,
6,5,{32}1,2,3,4,5,6,7,8,{2}5/1w5[4:5],
{4},,,,,,,5>2[8:1],
5<8[8:1],5,1b,{8}1-5[8:1],8,
7,6,4-8[8:1],3,4,3,2,2,
{16}2,3,4,1,2,3,8,1,2,3,4,5,{4}8b/6-2[8:1],
6b/4-7[8:1],4b/8-3[8:1]*-2[8:1],8b,{8}4-2[8:1],5,
6,7,8v3[8:1],1,8,2,4,5,
{16}7,6,5,8,7,6,1,8,7,6,5,4,{4}8x/3-1[8:1],
3b/7-3[8:1],7b/5w1[8:1],5b,3h[4:1]/7h[4:1],
,1-5[8:1],1-3[8:1]/8v3[8:1],8/1-7-5-3-8b[2:1],
1,8bx,,2/5-2[8:1],
5/8-4[8:1]*-5[8:1],8,6b/2b-5-7-1-4[4:3],B6f,
,4b-6-8-2b[2:1],{2}B8f,
{8}6bh[2:3],,,B4/B3/A3/D4/E4f,,,{4}E1/E8/B8/D8/A8f,
{8},,,,5,7,8-5[8:1],1,
2,3,2>5[8:1],1,5,6,7,7,
{16}7,6,5,4,8,7,6,5,1,8,7,6,{4}3/5-2[8:1],
5b/8v3[8:1],8b/1-6[8:1]*-5[8:1],1b,{8}4/2,1>4[8:1],
1,5,6,7,8<5[8:1],8,4,3,
{16}2,3,4,5,1,2,3,4,8,1,2,3,{4}6/4-8[8:1],
4b/1-5[8:1],1b/7w3b[8:1],{2}A7f/D7/D8,
{4},E3,,,E4,
,,E5,
,,{2}E6,
{4},E7,,,{1}E8h[4:5],
{2},3h[4:1],
{4}4/2,3h[4:1]/4h[4:1],,4,
{2}4h[4:1]/6h[4:1],{4}5/6,4h[4:1]/7h[4:1],
,1/8,{8}B1,B2,B3,B4,
E1/B5,E2,E3,E4,E5,E6,E7,E8,
D5,D6,D7,D8,D1,D2,{4}2b/6b,
,(230),{24}1/2,3,4,5,,,1/2,3,4,5,,,1/2,
3,4,5,,,2/8,3,4,5,,,2/8,3,4,5,,,2/8,3,4,5,,,8/7,
6,5,4,,,8/7,6,5,4,,,8/7,6,5,4,,,7/1,6,5,4,,,7/1,
6,5,4,,,7/1,6,5,4,,,8/1h[8:1],7,6,5,,,8/2h[8:1],7,6,5,,,8/3h[8:1],
7,6,5,,,1/7h[8:1],2,3,4,,,1/6h[8:1],2,3,4,,,1/5h[8:1],2,3,4,{48},,,,{16}5,
6,7,8,1,2,3,4,5/1,2,3,4,5/8,7,6,5,
1/4,2,3,4,{4}5/Cf,{8}3/4,5/6,3/4,5/6,
2/1,7/8,4/3,5/6,2/5,7h[4:1]/4h[8:1],,,6/5,
4/3,1/2,5/6,8/7,4/3,1/2,5/6,
1/2,5h[8:1]/6h[4:1],{32},,,,,,,,8x,7x,6x,5x,4x,3x,{16}2x,{32}1x,2x,3x,4x,5x,6x,7x,8x,
{4}1x,{32}1x,2x,3x,4x,5x,6x,{16}7x,{32}8x,7x,6x,5x,4x,3x,2x,1x,{4}8x,
{8}7/6,7/6,6/5,5/4,4/3,3/2,{24}1,8,1,8,1,8,
1,8,1,8,1,8,{16}1b,(222),,,{2}1h[1:5]/7h[#6.216217],
{1},,,,{4},,,{24}E1,
E8,E7,E6,E5,E4,
E3,E2,E1,E8,E7,E6,{4}Cf/B5/B4/E5,{8}8V64[4:1],8,,3-7b[8:1],
,,{4}4-8-6[4:1],6-2[8:1],3,
{8}1V35[4:1],1,,6-2b[8:1],,,{4}5-1-3[4:1],
3-7[8:1],6,{8}8>4[4:1],8,,5-1b[8:1],
,,{4}8-6[8:1]*-5[8:1],8-3[8:1]*-2[8:1],8,
{8}5,2-5b[8:1]/4-8b[8:1],,2/4,,6,{16}8,1,2,3,
1/4,8,7,6,{4}5/Cf,{16}6b/1,2,3,4,5/8b,4,3,2,
{4}1/7b,{16}1/6b,2,3,4,5/7b,4,3,2,1/8b,7,6,5,
4/2b,5,6,7,8/3b,7,6,5,{4}4/1b,{16}2b/8,7,6,5,
4/1b,5,6,7,8/3b,7,6,5,{2}2h[1:3]/4h[2:1],
{4},5h[8:1],6h[8:1],7h[8:1],
8,E1,E8,E7,
{1}E6h[8:3],
{8},,5h[16:1]/1bh[16:1],6h[16:1]/2bh[16:1],7h[16:1]/3bh[16:1],4bh[16:1]/8h[16:1],(230){4}1/5b,
{8}6/5-1-3[4:1],5/6,,7-4[8:1]*-3[8:1],,7-2b[8:1]*-1b[8:1],,7,
,5b/6b,{4}4b/7b,{8}3/4-8-6[4:1],4/3,,2-5[8:1]*-6[8:1],
,2-7b[8:1]*-8b[8:1],,2,,3b/4b,{4}2b/5b,
{8}2h[8:1]/6h[8:1],,,5/7h[4:1],,5,{4}4v7[8:1]*v1[8:1],
4,{8}8-4[8:1],2-5[8:1],8,2,,7/8,
,2/1,{32}8h/2bh[8:1],7,6,5,{8}4,{32}1h/7bh[8:1],2,3,4,{8}5,{32}8b,7/1h,2b/6bh,3/5,{8}4bh,
E
