&title=宙天 feat. raputa & 神威 & 麒麟 & Emperror & Apollo & ガラテアの螺旋 & PANDORA PARADOXXX & solips & 封焔の135秒 & Contrapasso -paradiso- & Moon of Noon & Our Wrenally & Credits & Destr0yer & Prophesy One
&artist=Hikaritsu0927
&first=0.033
&des=Cuplid Tea M
&des_1=
&des_5=
&lv_1=18+
&lv_5=1
&inote_1=(125){4}E1,,{2}C,
E5,D5,
{4}5h[1:2],{8},,,,E6,E5,
{2}E4,E5,
{4}3h[1:2],{8},,,,D4,D5,
{2}D6,C,
{4}4>5[2:3],{8},,,,E6,E5,
{2}E4,E1,
{4}5<4[2:3],{8},,,,E4,E5,
{2}E6,E1,
{64}7<7[2:3],8,{32}1,{4},,{16},,,{8}E6,E5,
{2}E4,E1,
{64}8/1,7/2,3/6h[32:11],4,{16}5,,,,,,,{2}6h[8:3]/4h[4:1],
6h[8:3]/3h[4:1],6h[8:3]/2h[4:1],
{4}4>5[2:3],{8},,,,5,5,
{2}5,4,
(90){16}5/1,{32}3,4,{16}2>5[16:1],{32}8-4[16:1],1,{16}8,6/4,2,8,1,{32}3,4,{16}2-8[16:1],{32}7-3[16:1],8,{16}6,3/5,2,7,
{32}1,2,3,4,5h[8:1]/6v1[16:1],7,8,1,2,3,4,5,{8}6/2b,{32}3,3,4,2,6,6,5,7,1-5[16:1],8,2,7,3,6,{16}4,
1/5,{32}7,8,{16}7,1/5,(1260){4},(125){64}8bx/1bx,D2f/D8f,7bx/2bx,D7f/D3f,6bx/3bx,D6f/D4f,{32}D5f/5bx-3-7-1-7-3-5b[2:3]/4bx-6-2-8-2-6-4b[2:3],{1},{4},,,{16},,(625){2},
(125){8}6b/2b-4[8:1],7/1,2/8,{16}7,7,5-3[8:1],6,{8}4,{4}5/2h[8:1],
{8}5/2v5[8:1],3/4,6/2,{16}7,7,5q1[8:1],6,{8}4,{4}5/3,
{8}3b/7b-5[8:1],2/8,7/1,{16}2,2,4-7[8:1],3,{8}5,{4}4/8h[8:1],
{16}2-5[8:1],1,{8}3,2/8-2[8:1],7-3[8:1],8-4[8:1],7,8,2b,
1b,2b,2b,1b,3b,2b,2b,3b,
{32}3b,,,,,,,6b/2b-4[8:1],,,,7/1,,,,2/8,,,,7,,7,,5-3[8:1],,6,,4,,,,5/2h[8:1],
,,,,,,,5/2v5[8:1],,,,3/4,,,,6/2,,,,7,,7,,2b,,,,2b,,,,2b,
,,,(150)4b,,,,,(125){8}1b-5[8:1],2/4,1/5,{16}6,6,8p4[8:1],7,{8}1,
8/2,3,1/2-7[8:1],7/8,{4}2/5h[8:1],{16}7/8<5[8:1],1,{8}2,
{4}8/1,{8}3/4<7[8:1],1/2,3/4,{16}2,2,8-4[8:1],1,{8}7,
{4}8/6h[8:1],{8}5/2<7[8:1],3/4,2/5,{16}6,6,5,5,{8}7/4,
{16}3b/8-4[16:1],2b/7,{64},,,1b/6,,,,,5b/8bqq2[4:3],Cf,{4},,,{16},,,{32},{16}3-7b[0.36##0.12],
{32},,,,3bs7>1z5[0.24##0.36],Cf,,,,,,,,,,,,,,,{16}1/8v7[0.3##0.12],
{32}1/8,,,1v2[0.3##0.12],,,,,{8}6pp3[0.24##1.2],6h[8:9],,,,,,,{4}4h[4:1],
{8},3/5,{4}2-4v1[4:1],
{8}4,5,{4}6bxh[4:5]/A1f,,2h[8:1],
3h[8:1],4h[8:1],5h[8:1],{16}4,4,5,5,
3,3,6,6,4,4,4,4,4/E6,4,{8}4/E7,{16}8,8,8,8,
8/E4,8,{8}8/E3,{32}2x,8,2,8,2,8,2,8,1-5-1[4:1],7,1,7,1,7,1,7,{4}1bw5[8:1],
{16},,,,5,5,5,5,5/E4,5,{8}5/E3,{16}1,1,1,1,
1/E6,1,{8}1/E7,{32}7x,1,7,1,7,1,7,1,8-4-8[4:1],2,8,2,8,2,8,2,{4}8bw4[8:1],
{64},,,,,,,,,,,,,,,,,3,,,,3,,,,4,,,,4,,,,2,,,,2,,,,8,,,,8,,,,1,,,,1,,,,7,,,,7,,,,5,
,,,5,,,,6,,,,6,,,,4,,,,3,,,,2,,,,1,,,,8,,,,7,,,,6,,,,5,,,,4bxw8[8:1],{4},,{32}4,
,4,,4,,4,,4/E6,,4,,4/E7,,,,8,,8,,8,,8,
,8/E4,,8,,8/E3,,,,2x,8,2,8,2,8,2,8,1-5-1[4:1],7,1,7,1,7,1,7,1bw5b[8:1],,,,,,,,,,,,,,,,8,
,8,,8,,8,,8/E2,,8,,8/E3,,,,4,,4,,4,,4,
,4/E8,,4,,4/E7,,,,6x,4,6,4,6,4,6,4,5-1-5[4:1],3,5,3,5,3,5,3,5bw1[8:1],,,,,,,,,,,,,,,,4,
,4,,4,,4,,4/E6,,4,,4/E7,,,,8,,8,,8,,8,
,8/E4,,8,,8/E3,,,,2x,8,2,8,2,8,2,8,1-5-1[4:1],7,1,7,1,7,1,7,1bw5b[16:1],,,,,,,,,,,(243){8},
,2-6[8:1],,2/7-4[8:1],,7/3-8[8:1],
,3/6-2[8:1],,6/1-5[8:1],,1-3[8:1]/8-4[8:1],,1/8,
,6,6,7/3-8[8:1],,3/6-3[8:1],,6/1-6[8:1],
,1/5-1[8:1],,5/3-1[8:1],,3,,4/6,
5,5/3,4,7-3[8:1],,7/2-5[8:1],,2/6-1[8:1],
,6/3-7[8:1],,3/8-4[8:1],,8-6[8:1]/1-5[8:1],,8/1,
,3,3,1/6,7,7,8/3,2,
2,3/6,6/3,5-7[8:1]/4-2[8:1],,5/4,{16},,8/1,7/2,
{8}6/3,6b/3b,{16},,(121.5)7b/3b,6-4[16:1],4,3b/7b,,1,{8}1,{16}2b/6b,3,
5,6b/2bh[8:1],,8,1,8,(243){8}2/6-1[8:1],,6/3-6[8:1],,3/8-3[8:1],
,8/4-8[8:1],,4/6-8[8:1],,6,,5/3,
4,4/6,5,(121.5){16}3b/7b,6-3[16:1],4,3b/7b,,2,{8}2,{16}5b/1b,2,
4,5b/1b,3/7,8/4,(243){32}1/5,8,7,6,5,4,3,2,(121.5){8}5h[16:1]/1h[32:1],5h[16:1]/3h[32:1],{24}2,4,2,4,2,4,
1h[8:3],,,,,E5,{4}E4,(125){8}2x/1x,3,1/2,8,
{16}7h[16:3],,,6h[16:3],,,{8}5,{16}2h[16:3],,,3h[16:3],,,{8}4,
8<5[8:1],4>1[8:1],,,{4}7h[4:1],{8}8,{16}2,1,
{8}2,{16}7,5,,5,{8}4,{16}4,2,,2,{8}4q5[8:3],4,
,,,,7x/8x,6,8/7,1,
{16}2h[16:3],,,3h[16:3],,,{8}4,{16}7h[16:3],,,6h[16:3],,,{8}5,
1>4[8:1],5<8[8:1],,,{4}2h[4:1],{8}1,{16}7,8,
{8}7,{16}2,4,,4,{8}5,{16}5,7,,7,{8}5p4[8:3],5,
,,,,8p4[0.96##0.24]*q4[0.96##0.24],8,6/2,6/2,
,,,,2p6[0.96##0.24]*q6[0.96##0.24],2,8/4,8/4,
,,,,8V61[0.96##0.24],8V62[0.96##0.24],8V63[0.96##0.24],8,
,,,,1V38[0.96##0.24],1V37[0.96##0.24],1V36[0.96##0.24],1,
{32},,,,,,,,,,,,,,,,7,8,{16}7,{32}2,1,{16}2,{8}4/3,{32}2,1,2,1,
{8}2-6-8[8:1],3/8>3[16:1],{4}2/6,{32}6,5,{16}6,{32}3,4,{16}3,{8}1/2,{32}7,8,7,8,
{8}7-3-1[8:1],6/1<6[16:1],{4}7/3,{16}2/5,{32}3,4,{8}3,5/2>5[16:1],{16}8,7/1,
{8}2-7[16:1]/6-3[16:1],8,{4}6b/2b,{16}5/1,{32}2,4,{16}3,{32}7,5,{8}6V83[8:1],7/3V51[8:1],
{2}6/1,{32}2,1,{16}2,{32}7,8,{16}7,{8}5/6,{32}7,8,7,8,
{8}7-3-1[8:1],6/1<6[16:1],{4}7/3,{32}3,4,{16}3,{32}6,5,{16}6,{8}8/7,{32}2,1,2,1,
{8}2-6-8[8:1],3/8>3[16:1],{4}2/6,{16}7/4,{32}6,5,{8}6,4/7<4[16:1],{16}1,2/8,
{8}7-2[16:1]/3-6[16:1],1,{4}3b/7b,{16}4/8,{32}7,5,{16}6,{32}2,4,{8}3V16[8:1],2/6V48[8:1],
{2}3/8,{16}5/2,{32}3,4,{16}3,2,4/7,{32}6,5,{16}6,7,
2/5V73[8:1],{32}3,4,{16}3-8[16:1],2,{4}4,{16}4/7,{32}6,5,{16}6,7,5/2,{32}3,4,{16}3,2,
7/4V26[8:1],{32}6,5,{16}6-1[16:1],7,{4}5,{8}5/4-1[16:1],{16}5/3,5/3,4/6-8[16:1],6,{32}6,5,7-4[16:1],5,
{8}6,{16}3-8[16:1],3,{48},,,,,,,,,,,,{24}6/5,7,4,6-1[16:1]/5-2[16:1],7,4,{8}6/5,6/5,
{64}8,7,6,5,4,3,2,1,8,7,6,5,4,3,2,1,8/E2,E3,E4,E5,E6,E7,E8,E1,E2,E3,E4,E5/Cf,{1},{4},,,{16},5,
4,(130)6,5,4,3h[16:9],,,,,,,,,{8}E4,
E5,(135){16}E6,{32}5bx/4bx,6bx/3bx,7bx/2bx,8bx-2-6-4-6-2-8b[8:3]/1bx-7-3-5-3-7-1b[8:3],{4},,{16},,,5,
4,(140)6,5,4,3h[16:9],,,,,,,,,{8}E4,
E5,4h[4:1]/E6,,,,(145)4h[4:1]/E7/B6,
,7-5v4-2-4v5-7b[0.4138##2.5677],,(150)5bh[#2.567749],,,,,,,,(155),
,,,,,,,(320)6V48[1:1],
,,,2,
,,,8V64[0.1875##0.7443],,,,2,
,,,(330)4V62[1:1],,,,3,
,,,2V84[0.1818##0.7219],,,,3,
,,,(340)4V68[1:1],,,,2,
,,,8z4[0.1765##0.7008],,,,2,
,,,(350)4s8[1:1],,,,2,
,,,1,,,,5/4,
,,,(360)3V51[1:1],,6,,7h[16:1],
,8,,1V35[0.1667##0.6622],,8,,7h[16:1],
,6,,(370)5V37[1:1],,6,,7h[16:1],
,8,,7V15[0.1622##0.6444],,6,,6h[16:1],
,6,,(380)5V31[1:1],,6,,7h[16:1],
,8,,1s5[1:1],,8,,7h[16:1],
,6,,6h[2:1],,,,B2/E3/B3,
,,,8h[2:1]/B5/E5/B4,,,,C,
{16},,,,,,(95)7bx<5[16:1]/2bx>4[16:1],{48}1,8,1,{8}8,7x/2x,{24}6/4h[48:1],4h[48:1],4h[48:1],5h[48:1],5h[48:1],5h[48:1],
6h[48:1],6h[48:1],6h[48:1],5h[48:1],7h[48:1],7h[48:1],{48}8,7,6,5,,,{24}3pp6b[6:1],3h[48:1],3h[48:1],2h[48:1],1h[48:1],{12}8h[48:1],{24},,,8h[48:1],8h[48:1],8h[48:1],5h[48:1],5h[48:1],
{16}6/5,{32}3,4,{8}5/6>2>6[4:1],{16}8/7,8/7,{8}6/1,,E1/B8/E8,{24}4h[48:1],4h[48:1],4h[48:1],5h[48:1]/E1/B8/E8,5,5,
5/2h[48:1],2,2h[48:1],6h[48:1]/3h[48:1],6h[48:1]/3h[48:1],6h[48:1]/3h[48:1],{8}7h[12:1]/5h[24:1],{32}4,4,5,5,4,4,3,3,4,4w8[16:1],5,5,4,4,{16}3,{32},Cf/B8/B7/B1/B2/B6,{4},,,{16},{4}7>3v5[4:1],
{8},,,,,,(80),(125)E1,
,,,C,,,E1,E5,
,,C,D5,,E1,E5,5/4>5[22.8##1.8],
,C,{4}D5,{8}E1,E5,{4}5/4>5[21.12##1.8],
{8}C,D5,,E1,5/E5,,,5/C,
{4}D5,{8}E1,5/E5,,,5/C,D5,
,E1,{4}5/E5,{8}5,C,D5,5,
E1,{16},,,,5,5,{24}C,,,,,,,5,,{8}E1,
{24}E5,,,,,,,5,,{8}C,{4}5/D5,{8}E1,E5,
{4}4>5[11.04##1.8],{16}5/C,5,{8}5/D5,,E1,E5,5,
{16},,C,5,D5,5,,,{8}E1,E5,4>5[7.68##1.8],5,
C,D5,{16},5,{8}5/E1,E5,,,5/C,
{4}D5,{8}5/E1,E5,,,C/4>5[3.84##1.8],D5,
{16},,,5,{4}E5,{8},E1,{4}5/D5,
{8},C,,,,E5,,,,D5,
,,,,,,{4}C/B4/A4/A1/B1/A7/B7,
A8/E8/B7/B6/E6/A5/D1/A1/E2/C/E4/A4/D5,{2}A8/E8/B7/B6/E6/A5/D1/A1/E2/C/E4/A4/D5,
{4},(150),(95){16}1b/2b,{48}7,8,7,{16}8,5,{8}6x/4x,{24}3/5h[48:1],5h[48:1],5h[48:1],
4-8[16:1],4h[48:1],4h[48:1],3h[48:1],3h[48:1],3h[48:1],{12}2/4-1[16:1],{24}6h[48:1],1h[48:1],2h[48:1],3h[48:1],{8}4/6qq3b[16:3],{24}7,7/1,8,8/6,1h[24:1],,{8}1h[24:1],
{16}1,{32}1,2,{16}4/3-8[16:1],{32}6,5,{16}4/3,2,{8}3/1,{32}7,6,1,2,7,6,1,2,{48}7,6,5,1,2,3,7,6,5,1,2,3,
8,7,6,2,3,4,8,7,6,2,3,4,1,8,7,3,4,5,{64}2,1,8,7,3,4,5,6,E7,E8,E1,E2,E6,E5,E4,E3,{48}B7,B8,B1,B4,B3,B2,B6,B7,B8,B4,B3,B2,E6,E7,E8,E4,E3,E2,
E5,E6,E7,E3,E2,E1,{32}A6,A7,A2,A1,D6,D7,D3,D2,{48}D2,(200)3,,4,,5,,6b-3[48:155]*-3[48:155],{1},,,,,{4},{16},,,{48},(95){4}2q3[8:3]/7p6[8:3],
{8},,,,5/4-2b[8:1]*-8<7-5b[4:1],7/2,
{4}4b,{8}1b,{24}2,4,3,7,5,6,{48}4,5,4,5,4,5,{4}3b/6b,
{32}1-5-1-5-1b[1.1053##0.3158],7,1,7-3-7-3-7b[1.1053##0.3158],2,8,2,8,1,7,2,8,1,7,,,,,,,,,2-6[16:1],8,4-8[16:1],6,1-5[16:1],7,3-7[16:1],6,{16}2,
4,1,3b-1[16:1],3-8[16:1],3-5[16:1],3-6-3-6-3-6-3-6-3-6-3-6-3-6[16:3],3h[32:1],3h[32:1],3h[32:1],7-3[0.6316##0.1579],,,,,(130){8},
(95){16}7/3,{32}7,6,{16}5/1,{32}2,3,{8}4/8<5[1.1053##0.1579]*>3[1.1053##0.1579],{32}8,8,8,8,{48}8,8,8,8w4[16:1],8,8,8,8,8,8b-3-1b[0.6316##0.1579]*-5-7b[0.6316##0.1579],,,,,,{16}8b,,8b,
(113){8},{32}1>4b[0.2655##0.1579],6,8,7,(95){8}1,6/2,{32}5b/3b-8b[16:1],6/2,{16}1/7v4b[16:1],6/4V61b[16:1],8/2,3b,7bh[32:3],,2,
{24}3b,3b,5b,5b,{12}2b,{96}8<5b[16:1],,,3,,,{32}1,2,8,3,1,2,{8}8,3/4,{32}2b/5b-1-3b[48:5],4,{48}3,4,3v8[12:1],{32}4,5,{48}6,5,6,
{8}5b,7x,{24}6,6,6,8,8,8,1-5[2.5263##0.1579],1,1,3-6[2.5263##0.1579]*-8[2.5263##0.1579],3,3,4,4,4,6,6,6,
8,8,8,1,1,1,3,3,3,5,5,5,{2}3>4[16:3],
{48}2b-4[16:1],1,2,1-5[16:1],2,1,{8}2-6[24:1],{16}2b,1,{8}2,{48}7b-4b[16:1],8-3b[24:1],7,8,7,8,{8}7,{4}7b/8b,
{16}3b<6[16:1],2,2/E5,2,3/8bp4[16:1],7,7/C,7,8/2b>5[16:1],1,1b/B3/B4,1,2/7b<4[16:1],6,6b/B1/E1,6,
7/2b>5[16:1],1,1b/B3/B4,1,2/7b<4[0.61##0.0754],6,6b/B1/E1,(110)6,(199){8}7/2b-7[8:1],2,3b-6[8:1],3,
4b-1[8:1],4,5b-8[8:1],5,6b-3[8:1],6,7b-2[8:1],7,
1b-5[8:1],1,8b-4[8:1],8,3b-8[8:1],3,2b-5[8:1],2,
4b-7[8:1],4,5b-2[8:1],5,6b-1[8:1],6,7b-4[8:1],7,
8b,8,7b/1b,7/1,(550){4},(190)1V72[8:1]/3-6[8:1],
,5V36[8:1]/7-2[8:1],,1V72[8:1]/3-6[8:1],
,3-1[8:1]/4-7[8:1],4/3,{8}8V27[8:1]/6-3[8:1],8/6,
,,4V63[8:1]/2-7[8:1],4/2,,,8,7,
1,2,{4}3/4,6-1[8:1]/5-2[8:1],{32}6/5,Cf,,,,,,,,,,,,,,,{4}8bxh[8:1]/7bxh[8:1],
4bxh[8:1]/3bxh[8:1],{8}2/5,3,
4/7,8,{4}1/2,3-8[8:1]/4-7[8:1],{32}3/4,Cf,,,,,,,,,,,,,,,{4}6bxh[8:1]/7bxh[8:1],
5bxh[8:1]/8bxh[8:1],{8}1V72[4:1],6-3[8:1],
1,6,,,{4}3-8[8:1]/4-7[8:1],{32}3/4,Cf,,,,,,,,,,,,,,,{4}1bxh[8:1]/2bxh[8:1],
5bxh[8:1]/6bxh[8:1],{8}7/4,6,
5/2,1,{4}8/7,6-1[8:1]/5-2[8:1],{32}6/5,Cf,,,,,,,,,,,,,,,{4}3bxh[8:1]/2bxh[8:1],
4bxh[8:1]/1bxh[8:1],{8}8V27[4:1],3-6[8:1],
8,3,,,{4}6/5,(95){16}7bx<5[16:1]/2bx>4[16:1],{48}1,8,1,{8}8,
7x/2x,{24}6/4h[48:1],4h[48:1],4h[48:1],5-1[16:1],5h[48:1],5h[48:1],6h[48:1],6h[48:1],6h[48:1],{8}5-8[16:1],{24}8,7,6,{8}5/3pp6b[4:1],{24}2,2/8,1,
{4}3/1,{8}8h[16:7],{16}7,7<3<7[0.7895##0.6316],,1,{8}1,,,E1/B8/E8,
{24}4h[48:1]/6V82[8:1],4h[48:1],4h[48:1],5h[48:1],5h[48:1],5h[48:1],6/4h[48:1],4h[48:1],4h[48:1],{8}4,5x/3x,{32}4,4,5,5,4,4,3,3,
4,4,5,5,4,4,3,3,{16}8,8,1,1,7/2,6/3,{8}5/4,(190)8-3[8:1],2h[16:1],
8h[16:1],7h[16:1],4-1[8:1],2h[16:1],4h[16:1],5h[16:1],8-5[8:1],4h[16:1],
8-4[8:1],3h[16:1],8-3[8:1],2h[16:1],8h[16:1],1h[16:1],1-6[8:1],7h[16:1],
1h[16:1],2h[16:1],5-8[8:1],7h[16:1],5h[16:1],4h[16:1],1-4[8:1],5h[16:1],
1-5[8:1],6h[16:1],1-6[8:1],7h[16:1],{4}1h[16:1],(95){32}7,6,1,2,7,6,1,2,
{48}7,6,5,1,2,3,7,6,5,1,2,3,8,7,6,2,3,4,8,7,6,2,3,4,1,8,7,3,4,5,{64}2,1,8,7,3,4,5,6,(200){4}Cf,
,,,,(175),
(200){8},6/2,{4}2/6h[2:1],4h[4:1],
{8},6/4,,,5h[8:1],,,3/7,
{4}7/3h[2:1],5h[4:1],{8},3/5,,,,4h`6h,
,3h[4:1]/4h[8:1],,,{4}4h[4:1]/3h[8:1],
{8},4h[4:1]/5h[8:1],,,5h[4:1]/4h[8:1],,,5h[4:1]/6h[8:1],
,,{4}6h[4:1]/5h[8:1],{8},5h[4:1]/4h[8:1],,,6h`4h,
,,7/3,{4}7-5[8:1]/3-5[8:1],7/3,
{8}3/7-3[8:1],7/3-7[8:1],,,1,1/5,,7/3,
{4}7V53[4:1]/3V57[4:1],7V13[4:1]/3V17[4:1],{8},,,,,7/3,
,7/4h[4:1],6,5,1/4h[4:1],2,
3,{16}4/5,6,7,8,1/5,4,3,2,{8}1b/5b,,8/1,
{4}1/8q4[4:1],4<8[4:1],8p4[4:1],4>4[0.3##0.6],
8,4,(202){8}1,6h[8:3],5,5,
,4b/7b,{16},,3,4,5,6,7,8,1/5,4,3,2,
1,8/4,7/3,6/2,{8}1/5,8>3[8:1]/4<7[8:1],,8/4,,,6/3,
5-8[8:1]/4-1[8:1],,5/4,,7b/2b,{16},,6,5,
4,3,2,1,8/4,5,6,7,8,1/5,2/6,3/7,{8}4/8,1<6[8:1],
,1>4[8:1],,1,,(210)6-4-8z4[4:3],{4}3-5-1s5b[8:5],
{8},,,,,,,1x/7xh[4:1],
,5,{4}7/4h[4:1],{8}5,4,{4}6/3h[4:1],
{8}4,3,{4}5/2h[4:1],{8}3,3/2,,4/1,
,4,{4}2/5h[4:1],{8}4,5,{4}3/6h[4:1],
{8}5,6,{4}4/7h[4:1],{8}6,6/7,,8/5,
,4,{4}3/7<5[8:1],{8}3,3,{4}2/6>4[8:1],
{8}2,2,{4}1/5>3[8:1],{8}1,1,,1/4,
,5,{4}6/2>4[8:1],{8}6,6,7,{16}4,3,
2,1,E5,B5,B6,E7,1`1?-5[0.5714##4.9286],2,3,4,E1,B8,B7,E7,{8}3,
2h[16:1],2h[16:1],3,4,4,2h[16:1],2h[16:1],3,
4,5,6,7h[16:1],7h[16:1],6,5,5,
7h[16:1],7h[16:1],6,5,4,3,2h[16:1],2h[16:1],
3,4,{4}4,,,,(125)E1,
,C,
,E5,,D5,
,5/4>5[2:3],{8},,,,E6,
E5,{4}E4,,E1,
,5<4[2:3],{8},,,,E4,
E5,{4}E6,,E1,
,4>5[2:3],{8},,,,5,
5,{4}5,,4,
3>6[0.48##1.2632],(95)5h[2:1],,,7w3[16:1],
{32}7>7[0.6316##1.2632]*<7[0.6316##1.2632],Cf,{4},,{16},,,(109){4},
(95){32}1,2,3,4,1,2,3,4,8<8<7[32:9],7<7<6[32:9],6>6>5[32:9],5>5>4[32:9],8,7,6,5,A8,A7,A6,A5,A4,A3,A2,A1,
A8,A7,A6,A5,{8}A4,{4}Cf/7>7[0.6316##1.2632]*<7[0.6316##1.2632],,,(100),
(95){32}1x,2x,3x,4x,1x,2x,3x,4x,8x<8<7[32:9]*<8<7[32:9],7x<7<6[32:9]*<7<6[32:9],6x>6>5[32:9]*>6>5[32:9],5x>5>4[32:9]*>5>4[32:9],8x,7x,6x,5x,A8/D8,A7/D7,A6/D6,A5/D5,A4/D4,A3/D3,A2/D2,A1/D1,
A8/D8,A7/D7,A6/D6,A5/D5,,,,,(105){4}Cf/B7/B6/B5/B4/B3/B2/B1/B8/7>7b[0.5714##1.203]*<7b[0.5714##1.203],,(95),
(90),(95){32}1b,2b,3b,4b,1b,2b,3b,4b,8b<8<7b[32:9],7b<7<6b[32:9],6b>6>5b[32:9],5b>5>4b[32:9],8b,7b,6b,5b,A8f,A7f,A6f,A5f,A4f,A3f,A2f,A1f,
A8f,A7f,A6f,A5f,{96},,,,,,,,,,,,{48}3b,4b,3b,4b,3b,4b,{24}2bh[48:1],2bh[48:1],2bh[48:1],{48}6b,5b,6b,5b,6b,5b,{24}7bh[48:1],7bh[48:1],7bh[48:1],{48}2b,8b,2b,8b,2b,8b,1b,7b,1b,7b,1b,7b,
{64}1b,2b,3b,4b,5b,6b,7b,8b,1b,8b,7b,6b,5b,4b,3b,2b,1b,1b,1b,1b,1b,1b,1b,1b,1b/B7f,C,B3,A3,,,,,,,,,,,{32}2,8,2,8,2,7,3,7,3,7,3,6,4,
6,4,6,3,5,3,5,3,{16}4b,4b,{24}4b,,4b,,4b,{96},,,,{32}4b,,,4b,,,{16}4b,{48},,{12}4b,
{24},4b,{96},,,,,,,{32}4b,,,{16}4b,4b,{32}4b,5,3,5,3,5,2,6,2,6,1,7,4w8[0.3947##0.1579],,,,,B7/B6/Cf/B8/B1/B2,{1},,,{16},,8w4[16:1],
,,,Cf/B6/B5/B4/B3/B2,{4},{16},,{32},{64}8b/1b,7/2,6/3,5/4,,2/1b,,,,,,,,,,,,,,,,,,,7b/6b,
8-2-7[0.3553##0.1579]/5-3-6[0.3553##0.1579],4/1,3/2,,,,,,,,,,,,,,,8b/1bs5[0.3158##0.3158]*z5[0.3158##0.3158],7/2,6/3,5/4,{1},,{4},,,{16},,,(179)1b,
,8b,{8}1b,1b,{16}8b,1b,
,8b,{8}1b,1b,{16}8b,1b,,8b,{8}1b,1b,{16}8b,1b,
,1b,,1b,,1b,,8b,{8}1b,1b,{16}8b,1b,,8b,
{8}1b,1b,{16}8b,1b,,8b,{8}1b,1b,{16}8b,1b,,1b,
,2b,,1b,{48}Cf/E2/E3/A3/A2/D2/A1/B2/B4/B3/E4/A4/D6/D7/A6/D3/A7/B6/B7/D1/A5/B5/B1/E1/B8/E5/D5/E6/E7/E8/A8/D8/D4,Cf/E2/E3/A3/A2/D2/A1/B2/B4/B3/E4/A4/D6/D7/A6/D3/A7/B6/B7/D1/A5/B5/B1/E1/B8/E5/D5/E6/E7/E8/A8/D8/D4,Cf/E2/E3/A3/A2/D2/A1/B2/B4/B3/E4/A4/D6/D7/A6/D3/A7/B6/B7/D1/A5/B5/B1/E1/B8/E5/D5/E6/E7/E8/A8/D8/D4,Cf/E2/E3/A3/A2/D2/A1/B2/B4/B3/E4/A4/D6/D7/A6/D3/A7/B6/B7/D1/A5/B5/B1/E1/B8/E5/D5/E6/E7/E8/A8/D8/D4,Cf/E2/E3/A3/A2/D2/A1/B2/B4/B3/E4/A4/D6/D7/A6/D3/A7/B6/B7/D1/A5/B5/B1/E1/B8/E5/D5/E6/E7/E8/A8/D8/D4,Cf/E2/E3/A3/A2/D2/A1/B2/B4/B3/E4/A4/D6/D7/A6/D3/A7/B6/B7/D1/A5/B5/B1/E1/B8/E5/D5/E6/E7/E8/A8/D8/D4,Cf/E2/E3/A3/A2/D2/A1/B2/B4/B3/E4/A4/D6/D7/A6/D3/A7/B6/B7/D1/A5/B5/B1/E1/B8/E5/D5/E6/E7/E8/A8/D8/D4,Cf/E2/E3/A3/A2/D2/A1/B2/B4/B3/E4/A4/D6/D7/A6/D3/A7/B6/B7/D1/A5/B5/B1/E1/B8/E5/D5/E6/E7/E8/A8/D8/D4,Cf/E2/E3/A3/A2/D2/A1/B2/B4/B3/E4/A4/D6/D7/A6/D3/A7/B6/B7/D1/A5/B5/B1/E1/B8/E5/D5/E6/E7/E8/A8/D8/D4,Cf/E2/E3/A3/A2/D2/A1/B2/B4/B3/E4/A4/D6/D7/A6/D3/A7/B6/B7/D1/A5/B5/B1/E1/B8/E5/D5/E6/E7/E8/A8/D8/D4,Cf/E2/E3/A3/A2/D2/A1/B2/B4/B3/E4/A4/D6/D7/A6/D3/A7/B6/B7/D1/A5/B5/B1/E1/B8/E5/D5/E6/E7/E8/A8/D8/D4,Cf/E2/E3/A3/A2/D2/A1/B2/B4/B3/E4/A4/D6/D7/A6/D3/A7/B6/B7/D1/A5/B5/B1/E1/B8/E5/D5/E6/E7/E8/A8/D8/D4,Cf/E2/E3/A3/A2/D2/A1/B2/B4/B3/E4/A4/D6/D7/A6/D3/A7/B6/B7/D1/A5/B5/B1/E1/B8/E5/D5/E6/E7/E8/A8/D8/D4,Cf/E2/E3/A3/A2/D2/A1/B2/B4/B3/E4/A4/D6/D7/A6/D3/A7/B6/B7/D1/A5/B5/B1/E1/B8/E5/D5/E6/E7/E8/A8/D8/D4,Cf/E2/E3/A3/A2/D2/A1/B2/B4/B3/E4/A4/D6/D7/A6/D3/A7/B6/B7/D1/A5/B5/B1/E1/B8/E5/D5/E6/E7/E8/A8/D8/D4,Cf/E2/E3/A3/A2/D2/A1/B2/B4/B3/E4/A4/D6/D7/A6/D3/A7/B6/B7/D1/A5/B5/B1/E1/B8/E5/D5/E6/E7/E8/A8/D8/D4,Cf/E2/E3/A3/A2/D2/A1/B2/B4/B3/E4/A4/D6/D7/A6/D3/A7/B6/B7/D1/A5/B5/B1/E1/B8/E5/D5/E6/E7/E8/A8/D8/D4,Cf/E2/E3/A3/A2/D2/A1/B2/B4/B3/E4/A4/D6/D7/A6/D3/A7/B6/B7/D1/A5/B5/B1/E1/B8/E5/D5/E6/E7/E8/A8/D8/D4,Cf/E2/E3/A3/A2/D2/A1/B2/B4/B3/E4/A4/D6/D7/A6/D3/A7/B6/B7/D1/A5/B5/B1/E1/B8/E5/D5/E6/E7/E8/A8/D8/D4,Cf/E2/E3/A3/A2/D2/A1/B2/B4/B3/E4/A4/D6/D7/A6/D3/A7/B6/B7/D1/A5/B5/B1/E1/B8/E5/D5/E6/E7/E8/A8/D8/D4,Cf/E2/E3/A3/A2/D2/A1/B2/B4/B3/E4/A4/D6/D7/A6/D3/A7/B6/B7/D1/A5/B5/B1/E1/B8/E5/D5/E6/E7/E8/A8/D8/D4,Cf/E2/E3/A3/A2/D2/A1/B2/B4/B3/E4/A4/D6/D7/A6/D3/A7/B6/B7/D1/A5/B5/B1/E1/B8/E5/D5/E6/E7/E8/A8/D8/D4,Cf/E2/E3/A3/A2/D2/A1/B2/B4/B3/E4/A4/D6/D7/A6/D3/A7/B6/B7/D1/A5/B5/B1/E1/B8/E5/D5/E6/E7/E8/A8/D8/D4,Cf/E2/E3/A3/A2/D2/A1/B2/B4/B3/E4/A4/D6/D7/A6/D3/A7/B6/B7/D1/A5/B5/B1/E1/B8/E5/D5/E6/E7/E8/A8/D8/D4,
E
&inote_5=(125)
E
