&title=Pieces of a dream
&artist=BlackY vs Yooh
&first=0
&des=lian
&lv_5=14+
&inote_5=(175)
{2},,,
{8}7qq4[8:3]/2,,7,2,,2,{16}2,3,{8}4,4h[2:1]x,B5,B6,B7,8<5[8:1],,
{8}8,,1pp5[8:3],,1,8,,7,6,5,
34,1,56,8,1-4[8:1]*-6[8:1],,1,,
{8}2pp5[8:3]/7,,2,7,,7,{16}7,6,{8}5,5h[2:1]x,B4,B3,B2,1>4[8:1],,
{8}1,,8qq4[8:3],,8,1,,2,3,4,
6h[16:1],3h[16:1],7h[16:1],2h[16:1],7h[8:3],,
{16}5,4,3,2,
{16}1h[4:1],,7,,6h[4:1],,7,,1,2,3h[4:1],,1,,8,,,,2,,3,,4h[8:2],,
{16}8,7,6,8x,7,6,5,4x<7[0.26##0.17]b,,,
{16}1,,2,,3h[8:1],,8,7,6h[8:1],,
{8}1,2h[4:1],,3,4h[4:1],,5,6h[4:1],,7,,
{16}3h[8:3],,4,,4,,8,7,6h[4:1],,5,,5,,,,
{16}3h[8:3],,4,,4,,8,7,6,8x,7,6,5,4,3xh[7:1],,
{16}6h[8:3],,5,,5,,1,2,3h[8:2],,4,,4,,
{8}5b/6b,3b/4b,1bv4[8:1]b/8bv5[8:1]b,2b/7b,1b/8b,,1b/8b,,
{8}1-7[8:1],,E2,,3-1[8:1],,E4,,5-3[8:1],,E6,,7-5[8:1],,E8,,
{16}
7h[16:2],8,,2h[16:2],1,,18,,6h[16:2],5,,3h[16:2],4,,45,,
3,4,,4,3,,3,,6,5,,5,6,,6,,
{8}2x/5x,2,36,6,74,7,46,6,
{16}4,5,4,5,3,6,3,6,2,7,2,7,1,8,1,8,
{32}
1b,2,3,4,5bx,6,7,8,1b,2,3,4,5bx,6,7,8,
1b,2,3,4,5bx,6,7,8,1b,2,3,4,5bx,6,7,8,
{4}1h[4:3]b/C1,,,,
{8}7h[8:3]/3h[8:3],,,,1>4[8:1],,1<6[8:1],,1,,
{32}2b,3,4,,8b,7,6,,1b-5[8:1]b,2,3,,,,,,{8}1x,,
1-3[8:1]*-4[8:1],,1-7[8:1]*-6[8:1],,1,,
3v8[8:1]/7v4[8:1],2x/6x,3/7,,8>3[8:1]/4<7[8:1],1x/5x,8/4,,
{32}1-5[8:1]b,2,3,4,5,,,,{8}1bx<6[8:1],,1b,,
{32}8b,7,6,5,,,,,7b,6,5,4,,,,,8b,7,6,5,,,,,
7bx,6,5,,1bx,2,3,,7bx,6,5,,,,,,8b-2-4[16:7],7,6,5,,,,,
{8}8,,8,1,,8,7,6,1x-7<6[8:1],5,1x-3<4[8:1],5,1,,{32}4bx/8bx,73,62,15,,,,,
{8}1h[16:3]/6h[16:3],,8>3[8:1]/5<8[8:1],,8-5[8:1],,8-3[8:1],,8,,
{32}7b,6,5,,1b,2,3,,8b-4[8:1]b,7,6,,,,,,{32}8x,C1,B4,,,,,,
{8}8-6[8:1]*-5[8:1],,8-2[8:1]*-3[8:1],,8,,
2v5[8:1]/6v1[8:1],3x/7x,2/6,,6<1[8:1]/2>5[8:1],7x/3x,6/2,,
{32}8-4[8:1]b,7,6,5,4,,,,{8}8bx>3[8:1],,8b,,
{32}1b,2,3,4,,,,,2b,3,4,5,,,,,1b,2,3,4,,,,,
2bx,3,4,,2bx,3,4,,2bx,3,4,,,,,,1-7-5[16:7],2,3,4,,,,,
{8}1,,1,8,,2,7,4,6x-1[8:1],6,3x-7[8:1],3,4x,,{32}8bx/4bx,15,26,37,,,,,
{8}2x-6[8:1]/1,,12,8,5/7<4[8:1],{16},4-8[8:1],7,,8,,
1V35[16:3],,,5-1[8:1],1,,8,,7<4[8:1],,,4-8[8:1],7,,1,2,
3x-7[8:1],,,,34,,5,,8/6<1[8:1],,,1-5[8:1],6,,5,,
4V28[16:3],,,8-4[8:1],4,,5,,6,,1,5,2x,4x,,,
2x-6[8:1],,,,12,,8,,5/7<4[8:1],,,4-8[8:1],7,,8,,
1V35[16:3],,,5-1[8:1],1,,8,,7,,,28,,,45,,
36,,7,8,7,4,5,4,63,,2x,1,2,4,5,4,2x/6x,,,8x/4x,,,
5x/6x,,1xb/8xb,,,,{32}2b,3,4,5,6,7,8,1,
{16}6x-2[8:1]/2x,,,,56,,4,,1/3>8[8:1],,,
8-4[8:1],3,,4,,5V71[16:3],,,1-5[8:1],5,,4,,
3>8[8:1],,,8-4[8:1],3,,5,6,
7x-3[8:1],,,,78,,1,,4/2-5[8:1],,,5,2,,6,,
{8}8x/7x,56,34,21,{16}7,8,,6,5,,47,,
{12}2b,2,4,5b,5,7,1b,1,3,8b,8,6,2b,2,4,5b,5,7,
{16}4bx,4,8,8,2bx,2,6,6,3x,4,3,4,2,1,2,1,
{16}5,6,5,6,8,7,8,7,
{16}3b/4,,5b/6,,1bpp4[4:1]b/8bqq5[4:1],,{8}2/7b,1bx/8x,,,,
{8}C1h[4:3],,,,{16}E2,E3,E4,,{8},,Ch[4:2],,,,{16}E8,E1,E2,E3,E4,E5,E6,E7,
{8}A8,E1,E2,A2,E8,B8,B2,E3,E7,B6,B4,E4,A6,E6,E5,A4,
{8}C1h[4:3],,,,{16}E8,E7,E6,,{8},,Ch[4:2],,,,{16}E1,E8,E7,E6,E5,E4,E3,E2,
{8}D8,D7,D6,D5,D4,D3,D2,D1,B3/E3,B7/E7,E1/B1,E5/B5,C1,,,,
{8}3h[8:3],4,4,4,{16}8x,7,6h[8:3],,{8}5,5,
{8}3h[8:3],4,4,4,{16}8x,7,6,8,7,6,5,4,
{8}3h[8:3]x,4,4,4,{16}8x,7,6h[8:3],,{8}5,5,
{8}3h[8:3],4,4,4,{16}8x,7,6h[8:3],,{8}5,5,
{8}2h[8:3],1,1,1,{16}1,8,7,6,{16}1,2,3,4,
{8}7h[8:3],8,8,8,{16}8,1,2,3,{16}45,6,7,8,
{8}1h[8:3],8,8,8,{16}8,7,6,5,{16}8,7,6,5,
{8},7b/C1f,1b/C1f,5b/C1f,3b/C1f,,,,
{16}1v6[8:1],,,,1,,8v3[8:1],,,,8,,,,,,
1>4[8:3],,,,,,4<7[8:3],,,,,,7>2>5[8:6],,,,,,,,,,,,5<1>5[8:6]b*-1>5[8:6],,,,
{1},{8},,B5/B6/E6/1h[4:1],,,B8/E1/E8/4h[4:1],,,E2/B2/B1/6h[4:1],,
8h[4:1]/B5/E6/E5,,,B4/B6/B5/3h[4:1],,,B1/E1/E2/5h[4:1],,
C1,,E2,E3,,E8,E7,E6,,E1/B1,B5/E5,B2/E3,E7/B6,,
{16}4,3,2,1,
8,,,1h[16:1],8,,1,,1x/7x,,,2h[16:1],1,,2,,
2x/6x,,E7,B6,B5,,2,,37,,,,3,,2,,
1h[8:1],,,5,4h[8:1],,8b,,
2h[8:1],,,6,5h[8:1],,8b,,
3h[8:1],,,6,5h[8:1],,8b,,
4h[8:1],,7,6,5,4,8b,,
{8}13,13,24,24,53,53,46,46,
{8}57,57,48,48,37,37,26,26,
{16}1,5,1,5,1,5,1,5,2,6,2,6,2,6,2,6,
{32}2,3,4,5,6,7,8,1,26,5,4,3,2,1,8,7,{8}6b<1[8:1]b/2b>5[8:1]b,,
{32}2bx/6bx,E3/E7,E4/E8,E1/E5,,,,,
{16}1h[4:1]x/5h[4:1]x,,,,{32}48,37,26,,,,,,
{16}4,8,4,8,3,7,2,6,1,8,7,6,85,7,6,5,
{16}4/8,,,,{32}26,37,48,15,,,,,
{16}8x-4[8:1],,2x-6[8:1],,8,,2,,
{16}5x,4,3,2,18,7,6,5,48,7,6,5,48,7,6,5,1,2,5,6,2,3,6,7,
{16}8x<5[8:1]b/4x>1[8:1]b,,,,{32}4b/8b,E4/E8,E3/E7,E2/E6,,,,,
{16}1,5,2,7,3,6,4,7,{16}2,8,3,8,4,8,4,7,
{16}3,6,2,5,1,5,8,,{32}1x/4x,,,,
{8},25,37,,12,83,47,,18,27,36,45,,
{32}B3/B7,B2`B6,B1`B5,E1`E5,,,,,
{8}8w4[8:1],,8,,34,1,56,8,
{16}8,,1-5[8:1]b,2,3-6[8:1]b,,1,,3,,,,
{8}1-4[8:1],1,8/1-6[8:1],,1/2,,
{8}1-6[16:1],2,3-8[16:1],4,5-2[16:1],6,7-4[16:1],8,
{8}1,{16}1,2,3,,,,
{8}1w5[8:1],,1,,56,8,34,1,
{16}1,,8-4[8:1]b,7,6-3[8:1]b,,8,,6,,
{16}1,,8,,1,8,1,2,3,4,1,2,3,4,8,1,2,3,
{8}45,27,,56,34,18,2-6[8:1]/7-3[8:1],,{32}2bx/7bx,B2/B7,C1f,B3/B6,,,,,
{16}1,8,1,8,2,7,2,7,3,6,3,6,1,7,1,7,
{16}3,5,4,6,3,7,2,6,1,5,2,4,3,6,
{16}2b,8,2b,8,3,5,3,5,1b,7,1b,7,4,6,4,6,
{16}1,8,5,6,4,5,2,4,1,6,3,5,4,6,5,7,
{8},12,12,34,34,18,18,56,56,7x/8x,3x/4x,1x/2x,5x/6x,8x/4x,
{16}3x/7x,2x/6x,1x/5x,,4h[8:1]x/8h[8:1]x,,
1,2,3,4,8,1,2,3,7,8,1,2,6,7,8,1,
{24}5b,1x,5bx,1,5bx,1,5bx,1,5bx,1,5bx,1,
{16},,,,{12}4x/8x,37,26,
{16}1,5,1,6,8,7,1,5,3,7,2,8,1,7,3,5,
{16}1bh[1:0],8h[1:0],7h[1:0],6h[1:0],1b,8,7,6,
1bh[1:0],2h[1:0],3h[1:0],4h[1:0],1b,8,7,6,
{16}4,5,2,4,1,6,8,7,2,8,3,7,4,6,3,8,
{16}2bh[1:0],3h[1:0],4h[1:0],5h[1:0],1b,2,3,4,
8bh[1:0],7h[1:0],6h[1:0],5h[1:0],1b,8,7,6,
{12}8b,8,6h[24:1],4b,4,2h[24:1],4b,4,8h[24:1],2b,2,4h[24:1],
{12}6b,6,8h[24:1],6b,6,8h[24:1],4b,4,6h[24:1],2b,2,4h[24:1],
{32}1,2,3,,8,7,6,,2,3,4,,7,6,5,,
{32}8b,7,6,5,48,37,26,15,8h[1:0],7h[1:0],6h[1:0],5h[1:0],48,73,62,51,
{8},1b/5b,3b/7b,1b/5b,3b>8[8:1]b/7b<4[8:1]b,,
{32}3bx/7bx,E3/E7,E2/E6,E1/E5,,,,,
{2},A1/B1`E2,,A2/B2`E3,
{8}74,6,5,4,63,5,4,3,52,4,3,2,4/1h[8:1],7h[8:1],5h[8:1],3h[8:1],,,,,
{16}B2/B1,B3,B4,,,,,,,,,,,,,,E1/E8,E7,E6,E5,E4,E3,E2,,
{8}14,2,3,4,25,3,4,5,36,4,5,6,47,5,6,7,
{2}1-3[4:1],E1,7-1[4:1],E7,
{8}E2,E8,E4,E6,B1,B7,B3,B5,B2,B8,B4,B6,E3`B2,E1`B8,E5`B4,E7`B6`,
{2}Ch[4:2],{16}E2,E3,E4,,,,,,{2}Ch[4:2],{16}E2,E3,E4,E5,E6,E7,E8,E1,
{8}6h[8:1],5h[8:1],4h[8:1],3h[4:1],6h[8:1],5h[8:1],4h[8:1],3h[4:1],
,{32},,6,5,4,
3bxv6[1:3]/6xbv3[1:3]b,,,{1},,,,,,
