&title=Luna say maybe
&artist=月村手毬
&first=0
&des=⌈今⽇もステージの上で証明して⾒せるから⌋
&lv_5=12+
&inote_5=(139){1},{4},,,,
{16}
8h,,3h,,,,7h,,,,4h,,5-1[10:1],,6,6,
3h[16:3],,,8h[16:3],,,2h[16:3],,,7h[16:3],,,
1h[16:3],,,6h[16:3],,,8h[16:3],,,5h[16:3],,,
8^3[6:1],,5,,78,,,,
7h[16:3],,,4h[16:3],,,6h[16:3],,,3h[16:3],,,
5h[16:3],,,2h[16:3],,,4h[16:3],,,1h[16:3],,,
4^7[6:1],,1,,34,,,,
2h[16:3],,,5h[16:3],,,6h[16:3],,,8h[16:3],,,
1h[16:3],,,3h[16:3],,,4h[16:3],,,6h[16:3],,,
1h[16:3],,,4h[16:3],,,2,,
7h[16:3],,3,3h[16:3],,,6h[16:3],,8,8h[16:3],,,
4h[8:1],,3,,
78,,65,,4,6,5,,75,,64,,35,,24,,
1,,1-3[10:1],,1,,,,4,4,,3/5-7[10:1],,4,,25,
,,1-3[10:1],,1,,,,4,4,3,5-7[10:1],,4,,25,,,
3,,7/4-2[10:1],,,,4/6-4[10:1],,,,
1,,1,,,,28,,2-8[10:1]/8,,,,7/2pp5[3:1],,,,6,,6,,
,,8-6[10:1],,8,,,,5,5,6,4-2[10:1],7,5,6,4,
,,8-6[10:1],,8,,8,,4,4,6,5v2[6:1],7,4,6,5,,,,,
2/5-7[10:1],,,,5/3-5[10:1],,,,
8,,8,,,,71,,7-5[10:1]/1,,2,2,7v1[48:7],,,,3,,3,,
2,1,3h[4:1],,6,,6,5,7h[4:1],,4,,3,,2,,
5-7[10:1],,4-2[10:1],,5,,4,,,,8,,2,,6,,
54,,54,,63,,63,,72,,72,,81,,8h[4:1]/1,,,,
5,,6,57,,3,42,,18,,7-3[8:3]/5,,42,,,,,,,,,,
8z4[8:1]/1s5[8:1],,,,8b/1b,,,,
3-5[10:1],,3,,8-4[8:1],,,,2-5[8:1],,2,,7-4[8:1],,
7,,4V68[6:1],,3,,2-5[8:1],,2,,1-6[8:1],,1,,4,,3,,
2-4[10:1],,2,,8-4[8:1],,,,1q5[8:1],,1,,7v5[8:1],,
7,,5V71[6:1],,4,,3-6[8:1],,3,,2-7[8:1],,2,,5,,3,,
1-4[8:1],,1,,8v3[8:1],,,,1v4[8:1],,1,,7p3[8:1],,
7,,8-4[8:1],,8,,6v3[8:1],,6,,8v6[8:1]*q4[8:1],,8,,8,,,,
3,5,3,5,3,5,2,6,2,6,2,6,1,7,1,7,1,7,1,8,1,8,1,
7,7,5,5,4,4,2,2,,
6b-4[10:1],,6,,1-5[8:1],,,,7-4[8:1],,7,,2-5[8:1],,
2,,5V31[6:1],,6,,7-4[8:1],,7,,8-3[8:1],,8,,5,,6,,
7-5[10:1],,7,,1-5[8:1],,,,8p4[8:1],,8,,2,,
2-6[8:1],,,,2-4[8:1]/8-4[8:1],,,,2/8qq4[3:1],,,,
3,,2,,1,,
8^3[6:1],,6,6,,,8,,1^6[6:1],,3,3,,,
4,,5qq2[24:9],,7,7,,,8h[4:1],,,,,,71,,,,
2b/6b,,3,5,4,,2b/7b,,3,5,4,,2b/8b,,3,5,
4,,53,,62,,71,,6,65,,3,3/4-8[10:1],,
5,,6b<4[2:1],,,,5,,5h[16:1],,5h[4:1],,,,,,
3,,3>5[16:7],,,,4,,4h[16:1],,4h[4:1],,,,,,
6,,6b<4[2:1],,,,5,,5h[16:1],,5h[4:1],,,,,,
3,,3>5[16:7],,,,4,,4h[16:1],,4h[4:1],,,,,,
6h[16:1],,6bpp2[8:5],,,,1,,,2,2,,3,,4,,
5,,5qq8[8:5],,,1,1,,8,,7,,7,,6,,6,,
51,,,6,5,,47,,,2,1,,38,,47,,
{24}5,6,5,6,5,6,5,6,5,
{32}6,4,3,2,1,8,7,6,5,4,3,2,1w5[8:1],8,7,6,5,4,3,2,
{16},,,,,,25,34,,,,,,,,,74,65,,,,,12,83,,,
6-1[8:1],5,7,4,6,,
2b-4[8:1],,2,,5v2[8:1],,5,,6-8[8:1],,6,,1,,
1v6[8:1]*v4[8:1],,,,1,,,,
7^4[8:1]/1^3[8:1],,,,1/7,,,,,,
5^7[8:1],,5,,8,,1^3[8:1],1,4,,4,,5,,5,,
6-8[8:1],,6,,1,,2-4[8:1],2,5,,5,,6,,
7^5[10:1],,7,,3^1[10:1],,3,,6^4[10:1],,6,,2^8[10:1],,2,,
4-7[8:1]*-1[8:1],,,,4,,,,
5-2[8:1]/6-8[8:1],,,,6b/5b,,,,,,
7h[4:1]/1,,4,,2,,7,,2h[4:1]/8,,5,,7,,
{48}8b/1b,7p6[8:5]/2,6/3pp1[48:29],{16}54,,
,,,,,,,,,,,,,,,
5-3[8:1],,,,1,,,,4-6[8:1],,,,8,,,,
5-2[7:1],,,,1,,,,4-7[7:1],,8,,8,,,,
2,2,,3,4,,56,,7,7,,1,8,,
42,,5,4,6,,18,,4,2,,7,5,,{48}7/3b,4,5,6,7,8,1,2,,,,,{16}
4/7b-4[8:1],,6,,1-5[8:1],,2,,8-4[8:1],,7,,2-5[8:1],,
3,,1-6[8:1],,8,,3-6[8:1],,4,,1q5[8:1]*v7[8:1],,1,,1,,,,
4b,6,4,6,4,6,3b,7,3,7,3,7,2b,8,2,8,
1b,1,7,7,3b,3,5,5,
{32}2b,3,4,5,8b,7,6,5,1b,2,3,4,7b,6,5,4,
{16}
2b^5[8:1],,3,,8-4[8:1],,,,1q5[8:1],,2,,7-3[8:1],,6,,
5q1[8:1],,4,,6^8[32:3],,7,,2-4[32:3],,3,,1-5[8:1],,8,,
4bqq2[8:1]*pp6[8:1],,4,,4,,,,
5,4,5,3,4,2,{48}8b,7,6,{16}5,,,
{48}7b/8b,1,2,3,4,,,,{16},
{48}1b,28,37,46,{16}5bqq4[48:9],,,4<2[3:1],,2,,8b,,,,,,,
4,4-7[8:1],,18,,24,,,1,1-5[8:1],,78,,
1^4[8:1]/3,,,,1^6[8:1]/7,,,,1pp5[24:9]/3,,,,
1b/4b,,5,,6,,7,,8,4,8,,83,,6/5qq1[24:9],,7,,
5b/1b,,8,,7,,6,,5,1,5,,6,5,47,,
1,8,1,,7qq5[6:1],,1,8,1,,2,,
3,4,3qq1[6:1],,5,4,5,,7,,
7V51[4:1],,1,,1V74[4:1],,4,,4V61[4:1],,3,,3h[8:1],,,,
3,,12,,3-8[8:1]/8-4[8:1],,47,,38,,,,
6-1[8:1]/1-5[8:1],,,,1<3[4:1]/6,,,,2,,2-7[8:1],,,,
2b/4b,,4-8[8:1],,4,,42,,2-5[8:1],,
2,,2/8-4[8:1]*-5[8:1],,8,,8b,,,,
36,,3V15[4:1],,5,,5V38[4:1],,8,,8V24[4:1],,
6h[16:1],,6h[8:1],,,,
7-4[8:1],,7,,7/5-1[8:1],,5,,5b/8b,,,,
7b/1b,,4b/5b,,2b/8b,,5b/6b,,1h[16:22]/3b,,,,
{32}2b,3,4,5,6,7,8,,2,3,4,5,6,7,8,,
2,3,4,5,6,7,8,,2,3,4,5,6,7,8,,
2,3,4,5,
6qq7[2:1]*>7[2:1],,{16},,,,,,,,,,,,,,,
5/6h[8:1],,1,,4/3h[8:1],,8,,
5/7h[8:1],,1,,4/2h[8:1],,8,,
{24}3,5,3,5,3,5,2,6,2,6,2,6,1,7,1,7,1,
{48}7,,8bw4[8:1],1,2,3,,8b,7,6,5,,,,{12},,,E
