&title=Canto VIII Boss 2 Battle Theme
&artist=Project Moon
&first=0
&des=老吴
&des_5=老吴
&lv_5=14
&inote_5=(130){4},,,,{2}3bxh[8:3]/B6/A6/E6,
7bxh[8:3]/E1/B8/B1,
1bxh[8:3]/C/B6/B5,{8}7p5[4:1],D2/E2f/A2,,,{2}3bxh[8:3],
{8}6bx/E2/B1/B2,7bx/B4/D4/A4,,,{2}E6/D6/A5/2bxq4[4:1],
{8}7-3[8:1]*-4[8:1],D1/E1/A1f,,,{2}2bx-5[8:1]/1bx-5[8:1],
{8}2bx-7[8:1]/6bx-3[8:1],2bx/6bx,{16},,,,5bx/4bx,
,,3bx/6bx,,,{8}2bxq1[4:1]/7bxp8[4:1],,,,,{2}1bx>4[8:1]/8bx<5[8:1],
{8}4bx-2[8:1]/5bxpp8[8:3],4bx/5bx,,,1,
1bx>1b[2:1],,7bxh[8:3],,,,,2pp5[8:3],
1,8,7,{4}6h[4:1],{8}4,3,
4/2h[8:1],5,4/6h[8:1],3,{16}2,1,{8}2h[8:1],8,7,
{4}6qq8[8:3],{8}3,2,{4}1h[4:1],{8}7,6,
3/5,4,7,{16}1,8,2,7,3,6,{8}4-1[8:1],4,
7qq4[8:3],7,1,2,{4}3h[4:1],{8}5,6,
5/7h[8:1],4,5/3h[8:1],6,{16}7,8,{8}7h[8:1],1,2,
5/3>8[8:1],5,6,7,6v1[8:1],5,4,3,
8/2,7/3,2/6,{16}7,8,,2,{8}8,{16}1,8,1,8,
{2}7bv1b[8:1]/2b>5[8:1],{16}3,6,,5,4,6,3,7,
{8}1b,{16}2,4,{8}3,{16}6,5,7,4,6,2,8,1,7,3,
{8}6b,1/8,{16}2,5,3,7,4,6,3,7,2,8,1,6,
3,4,1,5,{8}2-6[8:1],3,{16}2/8,8,,7,8,6,1,5,
2b-5[16:1],,,8b-4[16:1],,,{8}8b,{16}2,5,3,6,4,7,3,8,
{8}2-5[8:1],{16}8,8,{8}2,6,{16}7,8,6,1,5,2,4,3,
{8}5-1[8:1],{16}2,2,{8}5,4,{4}3>8[8:1]/7<4[8:1],3/7,
{16}1/5,2/6,{8}3/7h[4:1],,3,4,6/2,{16}1,7,2,6,
3/5,6/2,{8}1/7,8/2,3,{16}8,2,7,4,6,3,7v4-2b[16:5],1,
{2}5xh[4:1],{16}1x,1x,1x,1x,{32}8bx/1x,7x,6x,5x,4xV61b[16:3],3x,2x,1x,
8x,7x,6x,5x,{8}4bx/E3f/A3/B3,{24},,,,,,8b,7x,6x,1b,2x,3x,7b,6x,5x,{96}3b,,,2x,,,{32}1x,8x,
7x,6x,{48}5x,4x,,{16}8x,8x,{32}4bx,D5,D6,D7,D8,D1,D2,D3,{8}D4f/E4,{24}8x,7x,6x,4x/5x,3x,2x,8,{48},{16}8,
1xh[16:1],7h[16:1],3xh[16:1],8h[16:1],5xh[16:1],6h[16:1],2xh[16:1],7h[16:1],4xh[16:1],8h[16:1],1xh[16:1],6h[16:1],2xh[16:1],5,4,7xh[16:1],
4,5,3xh[16:1],6,1xh[16:1],6,2xh[16:1],6,4xh[16:1],7,1,5xh[16:1],3,7,4xh[16:1],8,
2xh[16:1],6,1xh[16:1],5,{32}2bx,3x,4x,5x,6x,7x,8x,1x,2x,3x,4x,5x,8bx,7x,6x,5x,4x,3x,2x,1x,8x,7x,6x,5x,
1bx/4xh[4:1],E2,E3,E4,E5,E6,E7,E8,E1,E2,E3,E4,5bx/4x,6x,7x,8x,1x<4b[16:3],2x,3x,4x,5x,6x,7x,8x,{4}A2f/B2/E3/1bxV37b[16:3],
{8}1x,5bV71b[16:3],{16},,4x,3x,{8}2bxV48b[16:3],2,{24}8x,7x,6x,5bx,,,{8}5,
{16}1,7,3bxh[16:1],6,2xh[16:1],6,1xh[16:1],6,3bxh[16:1],8,2xh[16:1],7,4xh[16:1],5,
{8}1bx,{16}6<4b[4:1],6,{8}3,6b/4,,1x,{16}2bxh[16:1],6h[16:1],1h[16:1],8h[16:1],
{8}3h[8:1],{16}7bxh[16:1],5h[16:1],8h[16:1],3h[16:1],{8}6h[8:1],{16}1bxh[16:1],5h[16:1],3h[16:1],7h[16:1],4h[16:1],6h[16:1],2bxh[16:1],8h[16:1],
4h[16:1],5h[16:1],{8}1h[8:1],{16}7b,7,5,5,4,4,2b,2,1,1,8,8,
7b,5,6,2b,4,3,8b,5,7,3,5,4,6,3,7,2,
{1}1bV75-3b[8:5]`8bV64[16:9],
{4}1bxh[4:1],{8}8,8,{4}7/1h[4:1],7,
{2}1h[4:1]/6h[4:1],1h[4:1]/5-8[8:1],
{4}1bx/8bxh[4:1],{8}2,2,{2}8h[4:1]/3h[4:1],
{4}7x-4[8:1],1x-6[8:1],3x-8[8:1],5x-2[8:1],
7bxh[4:1],{8}1,1,{2}6h[4:1]/2h[4:1],
{16}5/3,,,3,{8}5V31[4:1],4,6,6h[8:1],,,{4}8/2bxh[4:1],
{8}7,6,5/4,4h[8:1]/5h[8:1],,,3-5[8:1],
2,6,7,{16}8,7,{8}6,{16}2,3,{8}4,
{32}3bx/5bx,2bx/6bx,{16}7bxv4b[48:5]/1bxv4b[48:5],,,,,,,5x,5x,,6/3,,1,1,8,
2bh[16:1],7,4,7,4,7,3h[16:1],6,5,6,4,6,2h[16:1],5,3,5,
3,5,1h[16:1],4,2,4,2,4,{24}1bx,8x,7x,6x,5x,4x,3x,2x,1x,7bx/8bx,{48},,,,{16}2,
5,2,5,1h[16:1],7,3,6,3,6,2h[16:1],7,1,8,2,7,
3h[16:1],6,5,6,3,6,1h[16:1],4,3,4,3,4,8h[16:1],7,5,7,
5,7,2h[16:1],1,4,1,3,1,2h[16:1],7,5,7,3,7,1h[16:1],5,
3,5,3,5,2h[16:1],6,4,6,4,6,3,3,5,5,4,4,
7bh[16:1],2,6,2,6,2,5h[16:1],3,4,3,6,3,8h[16:1],4,7,4,
7,4,1h[16:1],5,8,5,8,5,{24}7bx,6x,5x,4x,3x,2x,1x,8x,7x,4bx/6bx,{48},,,,{16}7,
1,7,1,5h[16:1],4,8,2,8,2,7h[16:1],1,8,1,7,2,
6bh[16:1],3h[16:1],4h[16:1],2h[16:1],8h[16:1],1h[16:1],6bh[16:1],3h[16:1],4h[16:1],2h[16:1],8h[16:1],1h[16:1],{32}7b,6x,5x,4x,3x,2x,1x,8x,
7x/4x,6x/3x,5x/2x,4x/1x,{8}8bx-4b[32:3],{16},,,,5b,5,3,3,1,1,4b,4,
6,6,8,8,{32}5b,4,3,2,1,8,7,6,5,4,3,2,1b/4b,5,6,7,8,1,2,3,4,5,6,7,
{2}4b/8bw4b[8:1],{16}6x/3x,3x/6x,,4x/5x,,2x,{8}7x,
8b/1b,2/7,{16}3,4,,6,{8}5,{16}3,4,2,4,{8}3,
1/8,7/2,{16}7,8,,2,{8}1,{16}7,8,6,8,{8}7,
4b/5b,7/2,{16}6,5,,3,{8}4,{16}6,5,7,5,{8}6,
8/1,2/7,{16}2,1,,7,{8}8,{16}2,1,3,1,{8}2,
8b/4bh[8:1],7,{16}6,4,,3,{8}5,{16}2,8,1,8,{8}3,
7/5,6,{16}3,4,,6,{8}5,{16}8,1,7,2,{8}6,
5/1,2,{16}3,5,,6,{8}4,{16}7,1,8,1,{8}6,
2/4,3,{16}6,5,,3,{8}4,{16}1,8,2,7,{8}3,
{48}D3,E3,B2,C,B6,E7,{8}D7,1bx/8bx,3bx/8bx,5bx/8bx,7bx/8bx,8bx/1bx>2>3<4<5<6<7b[1:3],6bx/3bx,
{1}Cf/B8,
,,{4},,{16}4,
4,,5,{8}5,{16}2,7,
{4}1xh[2:1],E4,5xh[2:1],E6,
1xh[2:1],E8,5xh[2:1],E2,
2xh[2:1],E5/D5,8xh[2:1],E7/D7,
4xh[2:1],D1/E1,6xh[2:1],D3/E3,
1x,2x/B5/C,3x,4x/B7/C,
5x,6x/B1/C,7x,8x/B3/C,
{16}1,1,,8,{8}8,{16}2x/7x,3x/6x,{2}5bxh[8:11]/4bxh[8:11]/2?z6b[2.7692##0.2885],
{4},7?-3[1.3846##0.2308],{8},,,,2x/7x,
{32},,,,,,,,8b/1b,7x/2x,3x/6x,5x/4x,,,,,{8}6/3,{16}2,2,4,4,
5,5,7,7,1,1,8,8,2bh[16:1],6,3,6,4,6,8bh[16:1],7,
1,6,2,5,1bh[16:1],8,2,7,3,6,2bh[16:1],8,3,7,4,6,
5bh[16:1],7,3,7,1,7,8bh[16:1],6,1,5,1,5,4bh[16:1],6,3,7,
3,7,2b,2,8,8,1,1,{8}7bh[8:1],{16}4-1b[8:1],5,4,5,{8}4b/E3f,
{16},,,,8bh[16:1],1,6,2,6,2,7bh[16:1],4,6,3,7,2,
{32}8b,7,6,5,4,3,2,1,8,7,6,5,{8}4b/2b,{16}1,8,1,8,4b,6,2,7,
2,7,3,6,1,8,2,7,5bh[16:1],6h[16:1],1h[16:1],8h[16:1],3h[16:1],7h[16:1],5bh[16:1],6h[16:1],
1h[16:1],8h[16:1],3h[16:1],7h[16:1],{32}4b,5,6,7,8,1,2,3,4/8,7,6,5,{8}2b/4b-8b[8:1],{16},,,,1b,
1,2,2,3,3,7b,7,6,6,5,5,{32}1b,2,3,4,5,6,7,8,
1,2,3,4,{8}5b/6b,{16}8x,8x,8x,8x,{48}1bx,2bx,3bx,4bx,5bx,6bx,7bx,8bx,1bx,2bx,3bx,4bx,5bx,6bx,7bx,8bx,1bx,2bx,3bx/7x,6x,5x,4x,3x,2x,
1x,8x,7x,6x,5x,4x,3x,2x,1x,8x,7x,6x,{8}5bx/3bx,{16}2h[16:1],1h[16:1],3h[16:1],8h[16:1],4bh[16:1],7h[16:1],8h[16:1],6h[16:1],1h[16:1],5h[16:1],
{24}2b,3,4,8,7,6,3,4,5,7b,6,5,1,2,3,6/4,,,3b,5,3,6b,4,6,
2b,4,2,7b,5,6,3b,5,4,{96}7b,,,3x,,,{32}6x/2x,5x/1x,{2}8b-3b[8:1]/4b-7b[8:1],
{16}5/4,5/4,,3,6,2,{8}7,1bx/8,8/1,{16}2x,4,,4,
{8}3x,{16}3,5,4x,6,{8}3,5x/4,4/5,{16}6x,8,,8,
{8}7x,{16}7,1,8x,1,{8}8,1x/2,1/2,{16}2x,8,,8,
{8}3x,{16}5,2,4x,3,{8}5,5x/6,6/5,{16}6x,4,,4,
{24}7xh,3h,7h,3h,7h,3h,{16}8xh,2,2,2,{8}1x-6b[8:1],2x/8,3x,4x,
5x/3-6b[8:1],6x/4,7x/3,8x,8/1x-5b[8:1],2x/7,3x/1,4x,
3/5x-2b[8:1],6x/8,7x/5,8x,1xv6b[8:1],2x/6-8b[8:1],3x/1,4x,
5x-2b[8:1],6x/2-6b[8:1],7x/5,8x,1x<6b[8:1],2x/8,1/3x-1-5-2-6b[8:3],4x,
5x,6x,7x,8x,1bx<6V82[8:5],,,5x,
,5x,{16},,,,7x<4V68[8:5],,,3x,,,{8}3x,
,3x,,2x,{4}1xh[4:1],8x,
{16}2x/7x,7x/2x,,4x/5x,,6x,7x,8x,{32}A1,D2,A2,D3,A3,D4,A4,D5,A5,D6,A6,D7,A7,D8,A8,D1,
E
