&title=Freak Out Hr.
&artist=雄之助 feat. 夢ノ結唱 ROSE&POPY
&first=0
&des_1=手好累
&des_2=手好累
&des_3=手好累
&des_4=手好累
&des_5=手好累
&des_6=手好累
&lv_6=14
&des_7=手好累
&des=手好累
&inote_6=(180)
{1},
{4}B3h[4:1],{12}4,,{4}B2h[4:1],{12}5,4,,4,{4}B6h[4:1],{12}5,,{4}B7h[4:1],{12}4,5,,5,{4}E3h[4:1],{12}4,,{4}E2h[4:1],{12}5,4,,4,{12}E7,B6,B5,E2,B2,B3,E1,B8,B7,E3,B3,B4,
{12}6,,6,5,,5,8x,,5,6,,6,3,,3,4,,4,1x,,4,3,,3,
{12}6,5,7,3,4,2,6,5,8,3,4,1,{4}3>8[8:1]/8<5[8:1],3/8-4[8:1],8/4pp7[8:3],,
{12}3,2,1,84,7,6,58,4,3,26,1,8,75,6,5,41,3,2,1/8-4[8:1],,7,8,,6,
6,7,8,15,2,3,42,5,6,73,8,1,24,3,4,58,6,7,4<7[8:1]/8,,3,4,,1,
1,2,3,48,5,6,74,8,1,27,3,4,51,6,7,84,1,2,3-7[8:1]/7,,5,3,,4,
4,3,2,41,8,7,62,5,4,31,2,1,8x/5x,7,6,5x/1x,2,3,4x/8x,7,6,1x/5x,2,3,
{4}E6/4,{12}B6,,2,B7/2,,,E8/4,,3,E6,,2h[4:1],B6,,,B7,,,E8/4h[6:1],,,E6/3,,,B6/1,,,4/B7,,,E8/2,,,E6/3h[6:1],,,B6/3h[6:1],,,1/B7,,,2/E8,,2,E6,,3,B6,,4,B7,,3,E8,,2,E6,,1,B6,,2,B7,,3,E8,,4h[3:1],E6,,,B6,,,B7/4,,,C/2,,,3,3,4,2xhb[6:1],,,5,5,4,6xhb[6:1],,,
{4}6xh[6:1]/4x>1[8:3],5h[6:1],6h[6:1],7h[6:1],8h[6:1]/1>4[8:3],7h[6:1],{12}6,,6,5,,5,{4}6h[6:1]/4q1[8:3],7h[6:1],6h[6:1],7h[6:1],8h[6:1]/2>4[8:1],1h[6:1],{12}5,5,8,4,4,7,
{12}3<5[16:1],,3,8<6[16:1],,8,1>3[16:1],,1,6>4[16:1],,6,2-8[16
:1],,2,4-6[16:1],,4,1-3[16:1],,1,7-5[16:1],,7,2,2,4,8,8,5,3,3,6,4xb<6pp5b[4:3],,8xb>2pp1[12:7],{4},,,
{12},,1,2>5[8:1],,,{24}12,8,7,6,,,{12}38,,7,8,,8,7<4[8:1],,,{24}87,1,2,3,,,{12}16,,2,1,,
34,,,{24}3/4,E3,B2,B1,,,{12}65,,,{24}65,E7,B7,B8,,,{24}4qq1[8:3]/5h[12:4],E4,B3,B2,E2,,,,,,,,,,{12}7,,7,8,,8,
{24}1x/7x,E7,B6,B5,,,28,E3,B3,B4,,,1/7,E7,B6`,B5,,,{12}2-4[16:1],,2,5-7[16:1],,5,8-4[16:1],,8,7>2[8:1],,,,,,
{24}5/3,E3,B2,B1,,,64,E7,B7,B8,,,5/3,E3,B2,B1,,,{12}6-8[16:1],,6,1-3[16:1],,1,4,,4,2>5[8:1],,,12,,,{24}7x/8x,6,5,4,,,8x/7x,1,2,3,,,7x/8x,6,5,4,8x,,7x,1,2,3,7x,,8x,6,5,4,,,7x/8x,1,2,3,,,7x/8x,6,5,4,8x,,7x,1,2,3,7x,,{12}8x-4[8:1],,,6,,6h[4:1],,,5-3[8:1],,,2h[4:1],,,1-3[8:1],,,8h[4:1],,,4,8,,8,
{24}2x,3,4,5,,,1x/2x,8,7,6,,,2x/1x,3,4,5,1x,,2x,8,7,6,2x,,1x,3,4,5,,,2x/1x,8,7,6,,,2x/1x,3,4,5,1x,,2x,8,7,6,2x,,{12}1x-5[8:1],,,4,,3>8[8:1],,,4,,,6q2[8:1],,,5,,,4q5[4:1],,,,,,,
{4}Cf,,
{12}3,3,4,2hb[6:1],,1,2,2,4,3hb[6:1],,6,5,,5,7,,65,,,7h[12:13],E4h[4:1],,,{32}B4,B5,E6h[16:3],,,,,,B6,B7,E8h[16:3],,,,,,B8,B1,E2h[16:3],,,,,,B2,B3,E4,,,,,,{12}8,,8,1,,1,Cf,,,,,,
{12}6,6,5,7hb[6:1],,8,7,7,5,6hb[6:1],,3,4,,4,2,,34,,,
2h[12:7],E8h[4:1],,,{32}B7,B6,E6h[16:3],,,,,,B5,B4,E4,,,1bw5[8:1],,,{12},,1,,,8h[12:3],,,4,7,2,5,
{12}
8,1,2,37,4,5,61,8,7,62,5,4,13,2,3,41,5,6,8-4[16:1],,8,1-3[16:1],,1,
6,5,4,38,2,1,85,6,7,84,1,2,31,8,7,62,5,4,2-6[16:1],,2,1-7[16:1],,1,
5,4,3,26,1,8,74,3,2,15,8,7,62,1,8,74,6,5,7-3[16:1],,7,8-2[16:1],,8,
6,7,8,15,2,3,74,8,1,26,3,4,8x/5x,1,2,3x/1x,2,3,4x/2x,3,4,5x/3x,4,5xpp1[12:16]`5!-3v2b[12:16],{1},,
{12}E4h[4:1],,,,,E3h[4:1],,,B6,B5,,,E2h[4:1],,,,,E3h[4:1],,,B7,B6,,,
E6h[4:1],,,,,E7h[4:1],,,B3,B4,,,E8h[4:1],,,,,E7h[4:1],,,B2,B3,,,
A4h[4:1],,,,,D3h[4:1],,,E8,B7,,E2,A6h[4:1],,,,,D8h[4:1],,,B4,E5,,E8,
A2h[4:1],,,,,D1h[4:1],,,D6,A5,,,
{4}47,3,26,1,
{12}E3h[4:1],,,,,6h[4:1]/B4,,,5,7,,7,E8h[4:1],,,,,3h[4:1]/B5,,,4,2,,2,B2h[4:1],,,,,8h[4:1]/B4,,,5,7,,7,B6h[4:1],,,,,B7,,,8,3,,3,
{4}7<4pp8[4:3],1,2,3,2-4v5q1[4:3],7,6,7,
{4}8p4[8:1],4p8[8:1],8,4x>1[8:1]/7x<4[8:1],4x-8[8:1]/7x,4xqq1[8:3]/8,,,
{4}8q4[8:1]/7,{24}78,6,5,,,,{4}1p5[8:1]/2,{24}12,3,4,,,,
{24}1b/7b,6,5,4,,,8b/2b,3,4,5,,,4b/8b-4[16:1],37,26,15,,,,,,,
{12}3xp7[8:1]/7xp3[8:1],,,{24}37,,,,,,{12}2>5[8:1]/6<1[8:1],,,{24}2/6q4
[16:3],,,,,,{24}8>6[4:1],,C,,,,{12},,,,{12}3,,3,4,,4,
{24}5x/3x,D3,A2,D2,,,46,D7,A7,D8,,,35,D3,A2,D2,,,{12}7v5[16:1],,7,2v4[16:1],,2,8v1[16:1],,8,3<6[8:1],,,,,,
{24}1/7,E7,B6,B5,,,28,E3,B3,B4,,,71,E7,B6,B5,,,{12}2-8[16:1],,2,6-4[16:1],,6,1,,2x,3x-8[8:1]/7x-4[8:1],,,37,,,
{24}1x/5x,2,3,4,,,1x/5x,8,7,6,,,1x/5x,2,3,4,1x,,5x,8,7,6,5x,,1x,2,3,4,,,1x/5x,8,7,6,,,1x/5x,2,3,4,1x,,5x,8,7,6,5x,,
{12}1x-4[8:1],,,6,,7h[4:1],,,8-5[8:1],,,2h[4:1],,,3-6[8:1],,,4h[4:1],,,7,1,,1,
{24}8x,7,6,5,,,8x/4x,1,2,3,,,8x/4x,7,6,5,8x,,4x,1,2,3,4x,,8x,7,6,5,,,8x/4x,1,2,3,,,8x/4x,7,6,5,8x,,4x,1,2,3,4x,,
{12}8x<4[4:1],,,2,,1>5[4:1],,,6,,,7,,,1<6[8:1]/4>1[8:1],,,1pp2b[4:1]/4,,,,,,,
{12}8x,7,6,3,4,3,8,7,6,3,4,2,8,7,6,2,4,1,{24}7x,6,5,,1,,3x,4,5,,8,,
{12}2x,3,4,6,5,6,2,3,4,6,5,7,2,3,4,7,5,8,{24}1x,2,3,,8,,6x,5,4,,1,,
{12}5x,6,7,2,1,2,5,6,7,3,1,2,5,6,7,2,1,4,{24}7x,6,5,,1,,3x,4,5,,1,,
{12}7x,6,5,3,3,4,1,2,3,6,6,5,8b,3,6,2b,5,3,7b,4,6,8b,8,4h,
{1},{4},,,{12},,D5,
E
