&title=Magnolia
&artist=M2U feat. Guriri
&first=0
&des=-Lacr1mosa-
&des_5=-Lacr1mosa-
&lv_5=13+
&inote_5=(160){4},,,,,,,,{1}2h[1:1]/4h[2:1],
4q5[2:1],
2h[1:1]/6h[2:1],
{2}4-8[4:1],2h[4:1],
{4}4/6,{16}7,5,6,3,{4}4h[4:1],2,
1/5,{16}2,4,3,6,{4}5h[4:1],7,
8/4,{16}6,5,7,4,{4}8h[4:1],3>5[2:1],
4h[2:1],,,8,
{8}1,7-4[8:1],6,7/1,,2,1-5[8:1],8,
7,6-2[8:1],7,8,{2}1pp5[4:3],
8,{8}6,7,8,5/1h[4:1],
,4-8[8:1],3,7b<2[4:1],,,{4}8,
{8}7,2-5[8:1],3,2/8,,7,8-4[8:1],1,
2,3-7[8:1],2,1,{2}8<2[4:5],
{6}2,1,8,7,6,5,
{1}4qq1[4:3]*pp7[4:3],
{4},,,4,
{2}3h[4:1]/5h[4:1],{4}2,4,
3/5,6,{2}3/7h[4:1],
2h[4:1]/5h[4:1],{4}4,6,
3,{8}5,4,{4}7h[4:1],3,
3/4,2,6/4,7,
4/5,3,{2}6/2h[4:1],
7h[4:1]/5h[4:1],{4}6,4,
{2}5-1[8:1],3,
{4}3/7b,1-5[8:1],1/8,6,
5/3,{8}2-6[8:1],8,{4}7/2,8>3[8:1],
8/4,5-1[8:1],5/4,2,
1/7,{8}8-4[8:1],2,{4}8/3,1-5[8:1],
1/8,7<4[8:1],7/3,1,
2/8,{8}7-3[8:1],1,{4}2/7,1<6[8:1],
1/5,4-8[8:1],4/5,7,
1-5[8:1],1/8,{2}6b,
{4}4/8-4[8:1],{8}1,3-8[8:1],,5,{4}4>1[8:1]*<7[8:1],
4-8[8:1],{8}5,6-4[8:1],,1,{4}2-4[8:1]*-8[8:1],
2-6[8:1],{8}1,8-2[8:1],,4,{4}3-1[8:1]*-5[8:1],
3-7[8:1],{8}4,5-3[8:1],,2,{4}1-4[8:1],
{8}8,7,6,5-8[8:1],4,3,{4}2-5[8:1],
{8}1,8,7,6-1[8:1],5,4,{4}3-6[8:1],
{8}2,1,8,7-3[8:1],6,5,{4}4>1[8:1]*<7[8:1],
4,{8}8,7bv4[8:1]/1bv4[8:1],,,,,{4}4/8<5[8:1],
{24}5/8,4,3,2,,,,,,1/5,2/6,3/7,{4}4/8V63[4:3],
{8},3,2,1,8,7,{4}6,
5/1>4[8:1],{24}4/1,5,6,7,,,,,,8/4,7/3,6/2,{4}5/1s5[2:1],
{8},,,,,,,,6,
5,4,3,{4}6h[4:1],3,
5h[4:1],{8}4,6,{16}3,4,2,4,3,4,1,4,
{8}3,4,5,6,{4}3h[4:1],5,
4h[4:1],{8}5,3,{16}6,5,7,5,6,5,8,5,
{8}6-1[8:1],5,4,3,{4}4/5-8[8:1],2,
3/4-7[8:1],{8}1,1,{16}2,6,2,6,1,5,1,5,
{8}2,2-5[8:1],1,2/6,7-4[8:1],8,3/7,3,
2/8,{16}1,1,{8}1,3v8[8:1]/7-4[8:1],,7b/3b,{16},,,,6/2h[16:3],
,,8-4[16:1],,,{8}4,1,{16}5,5,,3,{8}3,
{16}4-7[16:1],,,4-1[16:1],,,{8}4,8-6[8:1],8-4[8:1],{16},,,,5h[16:3],
,,1-5[16:1],,,{8}5,8,{16}4,4,,6,{8}6,
2-8[8:1],6-4[8:1],2-6[8:1],6,2,8h[16:1],{4}8,
{16}6/2h[16:3],,,8-4[16:1],,,{8}4,1,{16}5,5,,3,{8}3,
{16}4<7[16:1],,,4>1[16:1],,,{8}4,8-4[8:1],8-2[8:1],{16},,,,6h[16:3],
,,1-5[16:1],,,{8}5,8,{16}4,4,,6,{8}6,
2,7<4[8:1]/3>8[8:1],4/8,7v2[8:1]/3v6[8:1],,,,,{4}2/6,
{8}2-6[8:1],6-4[8:1],{16}4-8[8:1],,,7,,,{8}5,
{16}1-4[16:1],,,1-6[16:1],,,{8}1,3-5[8:1],3-7[8:1],,,{4}1b,
{8}3-5[8:1],5-1[8:1],{16}7-3[16:1],,,7,,,{8}8,
4-6[8:1],4-2[8:1],4-7[8:1],4-1[8:1],{2}4-8[8:1],
{4}1/7,{8}7-3[8:1],3-5[8:1],{16}5-1[8:1],,,2h[16:1],,,{8}4,
{16}8-5[16:1],,,8-3[16:1],,,{8}8,{16}6,,,7/4,,,{8}2/1,
4b,8/2-5[8:1],3,2/6,8-5[8:1]*-3[8:1],7,{4}8,
{8},2h[16:1]/6h[8:3],,,{2}8b>5[4:1],
8h[4:1],{4}7<4[4:1],4>1[4:1],
1<6[4:1],6>3[4:1],{2}1-5[8:1],
{4}7-4[4:1],4-8[4:1],3,1-5[8:1],
1/8,{8}6/4,{16}3,4,{8}2,8/1,{4}6/3>6[4:1],
5,4-8[8:1],1,3,
2>5[4:1],5<8[4:1],8>3[4:1],4,
6,{16}7,5,7,5,{8}6,6,4/2,{16}1,8,
{8}1-5[8:1],7,6,8,{16}4,3,2,1,{4}8/5,
1-5[8:1],{8}8,6-1[8:1],,4,{4}5<8[8:1]*>2[8:1],
5-1[8:1],{8}4,3-5[8:1],,8,{4}7-5[8:1]*-1[8:1],
7-3[8:1],{8}8,1-7[8:1],,5,{4}6-8[8:1]*-4[8:1],
6-2[8:1],{8}5,4-6[8:1],,7,{4}8<5[8:1],
{8}1,2,3,4>1[8:1],5,6,{4}7<4[8:1],
{8}8,1,2,3>8[8:1],4,5,{4}6>3[8:1],
{8}7,8,1,2-6[8:1],3,4,{4}5<8[8:1]*>2[8:1],
5,{8}1,2bv5[8:1]/8bv5[8:1],,,,,{4}5/1>4[8:1],
{24}4/1,5,6,7,,,,,,8/4,7/3,6/2,{4}5/1V36[4:3],
{8},6,7,8,1,2,{4}3,
4/8<5[8:1],{24}5/8,4,3,2,,,,,,1/5,2/6,3/7,{4}4h[4:3]/8q1[2:1],
{8},,,,,,,,3,
,,4,,,{4}5>3[2:1],
,,,6,
{8}5,,,4,,,{4}3qq7[1:1]*-5[4:1],
{16},,,,,,,,,,,,,,,,,5h[16:1],
E
