&title=未だ、青い
&artist=湊あくあ
&first=0
&des=凡絵
&lv_5=12
&inote_5=(185)
{1}
,
{8}
4x,,4,Ch[8:3],,D4,A3,,
{8}
3x,,3,Ch[8:3],,D3,A2,,
{8}
2x,,2,Ch[8:3],,D2,A1,,
{8}
1x,,1-4[4:1],1-6[4:1],,B3,
{384}
B7,C,,
{128}
,,,
{32}
,,,
{8}
,
{2}
4>1[4:1],5<8[4:1],
{2}
4>1[4:1],5<8[4:1],
{1}
4xp2[2:1],
{384}
2x,
{8}
6x,
{384}
2x,
{8}
6x,,,
{384}
3x,
{8}
7x,
{384}
3x,
{96}
7x,,
{32}
,,,
{4}
,
{384}
D4,
{4}
5h[4:1],1,
{384}
D6,
{4}
4h[4:1],
{192}
8,,
{64}
,,,
{16}
,,,
{384}
A3,
{4}
5h[4:1],8,
{384}
A6,
{4}
4h[4:1],
{192}
1,,
{64}
,,,
{16}
,,,
{8}
3,4h[8:1],1,,6,5h[8:1],8,,
{8}
4,5h[8:1],3,,5,4h[8:1],
{20}
6,E6,B5,B4,E4,
{4}
3xh[4:1],8,
{16}
7,6,
{8}
5h[8:1],1,,
{16}
2x,3,4,,6,,8p1[4:1],,,,,,3,,A1,,
{16}
7x,6,5-8-3[4:3],,B2,C,B6,,,,,,4h[8:1],,,,
{8}
,,,Ch[8:3],,,,,
{4}
4>3>2<1[2:1],5,6,7,
{4}
8<7<6>5[2:1],1,2,3,
{2}
4v1[4:1],5v8[4:1],
{1}
4>5[2:1],
{4}
6v1<8<7<6[2:1],5,4,3,
{4}
2v5>4>3>2[2:1],7,8,1,
{384}
1x<6[8:3],
2x>8[4:3],,,
{96}
,,
{32}
,,,
{8}
,,,
{2}
,
{4}
3h[8:3],
{8}
,6,E6,B5,B4,E4,
{4}
5>4>3>2[2:1],B6,B7,B8,
{4}
1<8<7<6[2:1],B2,B3,B4,
{2}
5-7-1[4:1],
{8}
4v1[4:1],,7,6,
{2}
5-1[4:1],
{4}
2>4[4:1],
{8}
7,6,
{4}
5,,1q5<6q2>4[4:3],7-1<8p4[2:1],
{4}
,,,8<5v2>4[4:3],
{1}
,
{4}
6x,
{16}
E6,B5,B4,E4,
{384}
3x,
{8}
7x,
{384}
2x,6x,
{128}
,,,
{32}
,,,
{4},
{4}
6x-1-4[2:1],3,3,3,
{4}
2xq4[2:1],7,7,7,
{2}
8<6[4:1],4>2[4:1],
{1}
1w5[2:1],
{4}
5x>1[2:1],5,5,5,
{4}
5x<1[2:1],5,5,5,
{384}
1x<3[4:3],
5x<8[8:3],,
{128}
,,,
{32}
,,,
{8}
,,,
{2}
,
{4}
6h[8:3],
{8}
,3,2,,,,
{4}
1xq8[2:1],5,5,5,
{4}
5x-8-3[2:1],1,1,1,
{2}
1-3-5[4:1],
{8}
8v5[4:1],,3,2,
{2}
1-5[4:1],
{4}
6<8[4:1],
{8}
3,2,
{4}
1,,1q5<6q2>4[4:3],7-1<8p4[2:1],
{4}
,,,8-2<1-5<7q3<4[2:3],
{1}
,
{4}
,,,
{8}
7,2,
{4}
Cf,
{8}
,3,6,,4,5,
{8}
E5,C,E1,,,,3,6,
{4}
C,
{8}
,7,2,,8,1,
{8}
E1,C,E5,,,,7,2,
{4}
Ch[1:2],
{8}
,1,1>3[8:1],,,,
{4}
4,3,2,1-7-2-6-3-5[1:1],
{1}
,
{4}
,A5,D5,A4,
{8}
3,7,2,8,1x-4[4:1],,,1x-6[4:1],
{4}
,1xw5[4:1],,,
{8}
6,5,8,2,3,,C,4,5,1,7,6,C,,
{384}
6x,
{8}
1x,
{384}
7x,2x,
{128}
,,,
{32}
,,,
{384}
8x-4[8:1],3x,,
{128}
,,,
{32}
,,,
{8}
,,,C,,
{384}
6x,
{8}
1x,
{384}
7x,2x,
{128}
,,,
{32}
,,,
{384}
8x-4[8:1],3x,,
{128}
,,,
{32}
,,,
{8}
,
{4}
4>1[4:1],1-7-5[4:1],5-2-8[4:1],
{8}
3h[1:1],,,7x,7,,,6x,
{2}
6,1-5[8:1],
{8}
7,3,8,2,1x-6[4:1],,,1x-4[4:1],
{4}
,1xw5[4:1],,,
{8}
7,4,5,1,6,,2,8h[4:1],
{8}
,3,,,
{384}
3x,
{8}
8x,
{384}
2x,
{8}
7x,
{384}
1x-5[8:1],6x,
{96}
,,
{32}
,,,
{8}
,
{2}
,
{384}
3x,
{8}
8x,
{384}
2x,
{8}
7x,
{384}
1x-5[8:1],6x,
{96}
,,
{32}
,,,
{8}
,
{8}
,,,5h[8:3],Cf,,,,
{1}
,
{2}
,
{384}
1x,
{8}
6x,
{384}
2x,
{8}
7x,
{384}
8x-4[8:1],3x,
{96}
,,
{32}
,,,
{8}
,
{2}
,
{384}
1x,
{8}
6x,
{384}
2x,
{8}
7x,
{384}
8x-4[8:1],3x>4b[4:5],
{96}
,,
{32}
,,,
{8}
,
{8}
,,,,Cf,
