&title=Purple Passion
&artist=Diana Boncheva
&first=0
&des=阿抹AIMO
&wholebpm=168
&lv_5=13
&inote_5=(168)
{1},
{8}1/8h[16:32],,,2,,{16},3,,,,{32},4,
{1},{32}2b,3,4,5qq7[8:19]/8pp6[8:19],{16},,{4},,,
{8},,,{16},,,,,,,,,,
{1},
{8}5h[4:1],,,,51,2,3h[8:1],4,
5-2[8:1]/1,,6,6,7,,4/6,
,8/4-7[8:1],,3,3,2,,3/5,
,1/5-1[8:1],,6,6,2,2,5,
6,7h[8:3]/1,{24},,,2,,,2,3,4,6/5h[8:2],,,,,,
{8}1,,8<5[8:1]/2,,1,2,34,,56,,
1>4[8:1]/7,,8,7,65,,34,,
8-5[8:1]/2,,3,3,4,4,1,
8,7/2h[8:3],{24},,,7,,,7,6,5,4h[8:2]/3,,,,,,{8}3h[8:1],,8/1h[4:1],,
{8}
4,4,5,5,6,6,7-3[8:1],,
27,2,1,1,8,8,7-2[8:1],,
37,3,4,4,5,5,6-1[8:1],,
26,2,3,3,4,4,5-8[8:1],,
15,1,2,2,3,3,4-7[8:1],,
34,3,4,4,5,5,6-2[8:1],,
63,4,5,6,5,4,
{1}4z8[2:1]/5s1[2:1],
{8}4p8[8:1],,7,7h[8:3],1>4[8:1],,1,,
5q1[8:1],,2,2h[8:3],8,{24}8,7,6,5,,,{8},
1q5[8:1],,6,6h[8:3],7>2[8:1],,7,,
8p4[8:1],,3,3h[8:3],2,{24}2,1,8,7,,,{8},
5q1[8:1],,2,2h[8:3],8<5[8:1],,8,,
4p8[8:1],,7,7h[8:3],1,{24}1,2,3,4,,,{8},
8p4[8:1],,3,3h[8:3],2<7[8:1],,2,,
1q5[8:1],,6,6h[8:3],7,{24}7,8,1,2,,,{8},
8-6[8:1],,81,2,3/8-5[8:1],,38,2,
1-3[8:1]/8,,17,6,5/1-4[8:1],,51,6,
7-5[8:1]/1,,72,3,4/7-4[8:1],,47,3,
2-6[8:1]/6,,24,5,6,7,8,1,2h[4:1]/3h[4:1],,,
4,3,2,1,8,7h[4:1]/6h[4:1],,,
45,6,7,18,2,3h[4:1],,
7,48,15,37,48,15,
45,36,27,1h[2:1]/8h[2:1],,,,,{16}
2b,7,3,6,2,7,3,6,
2,7,3,6,2,7,1,8,
2,,5h[8:5],,,,7,,
4h[8:2],,,,,,,,
7,8,1,2,7,8,1,2,
7,8,1,2,7,8,1,2,
13,,1/3h[8:4],,,,8,,
8h[8:1],,,,38,,72,,
{16}1/6-3[8:1],,,,6,,1,,
2,,3h[4:1]/7,,,,5,,
6,,3/7h[8:5],,,,1,,
1h[4:1],,,,,,,,
{8}65,8,45,7,34,6,45,1,
{16}25,,4>8[6:1]/7,,,,47,,
5w1[8:1],,,,,,,,
7b,2,6,3,7,2,6,3,
7,2,6,3,7,2,8,1,
7,,4h[8:5],,,,2,,
5h[8:2],,,,,,,,
2,1,8,7,2,1,8,7,
2,1,8,7,2,1,8,7,
86,,8/6h[8:4],,,,7,,
7h[8:1],,,,67,,78,,
8/1>5[6:1],,,,18,,8,,1V75[6:1]
,,,,12,,,,
8/4h[8:2],,,,,,51,26,
3>8[8:1]/7<4[8:1],,,,37,,,,
{8}34,12,78,56,53,46,17,28,
35,5/7<4[8:1],,{16}3,2,{8}1h[8:2],,,,
{16}
1,8,1,8,2,7,2,7,
3,6,3,6,4,5,4,5,
2,7,2,7,3,6,3,6,
4h[8:2],,,,,,,,
8,4,7,3,6,2,5,1,
6,7,8,1,7,8,1,2,
{8}8V63[8:4],{16},2-7[16:5],{8},,,,,,
{16}
5h[16:3],,,3h[16:3],,,1h[16:2],,
7h[16:3],,,6h[16:5],,,8,,
2h[8:4],,,,1,8,7,6,
5h[8:4],,,,8,1,2,3,
4h[8:4],,,,2,1,8,7,
6,,26,,37,,48,,
18,,,8/1V36[16:7],,,7,,
7-2[8:1],,,,,,,,
4/5h[8:3],,,6,,,2,,
1h[8:3]/8,,,2,,,6,,
2h[4:1]/7h[8:6],,,,,,{32}2,3,
4,5,{16}6h[8:2],,,,,,,,
5/4h[8:3],,,3,,,7,,
8h[8:3]/1,,,7,,,3,,
7h[4:1]/2h[8:6],,,,,,{32}7,6,
5,4,{16}3h[8:2],,,,,,,,
{16}8-5[8:1]/1,,,2,,,3,,4-1[8:1]/5,,,6,,,7,,
{8}7h[4:2],,{16}8,1,2,3,4h[2:1],,,,2,1,8,7,
{16}6,,3,4,3,,1,,{16}1,2,3,4,1,8,7,6,{24}2,3,4,5,6,7,2,3,4,5,6,7,
{32}1w5[8:1],2,3,4,5,6,7,8,{16}1b,,,,
{16}
1,4,3,8,1,4,3,8,
1,4,3,8,1,4,3,5,
3h[8:3],,6<1[8:1],,,,6,,
2-6[8:1]*-4[8:1],,,,,,,,
2,8,6,4,2,8,6,4,
2,8,6,4,2,8,6,4,
28,,2/8-5[8:1],,,,4,,
4-1[8:1],,,,4/8,,8,7,{8}
1-3[8:1]/6h[8:2],,1,4,5,2/6h[4:1],,5,
4,3h[4:1]/7,,8,8-5[8:1]/8-3[8:1],,,,
24,8,3/5,1,46,8,57,1,
2-8[8:1],8-4[8:1],,6,6<1[6:1],,{16}5,,5,,
8,6,7,1,8,6,7,1,
8,6,7,1,8,1,7,2,
3/8,,1/6^1[8:1],,,,4/6,,
2^5[8:1],,,,,,,,
3,6,8,1,3,6,8,1,
3,6,8,1,3,6,8,1,
2/7,,3-8[8:1]/6,,,,5/3,,
4-7[8:1],,,,1,,1,2,
{8}
3h[8:2]/8-5[8:1],,8,2,1,3/7h[8:1],4-7[8:1],,
2h[8:2]/4,,,{16}1,8,{8}7v4[8:1]/3v8[8:1],,37,,
34,45,78,56,87,18,34,12,
3,8h[4:1],,{16}2,3,{8}4>1[8:1]/8<5[8:1],,,,
{16}
1,8,1,8,1,7,1,7,
1,6,1,6,8,5,8,5,
7>2[8:1],,6,,,,3,,
3-6[8:1],,,,,,,,
8,1,8,1,8,2,8,2,
8,3,8,3,1,4,1,4,
2<7[8:1],,3,,,,6,,
6-3[8:1],,,,,,,,
4,5,3,6,4,5,2,7,
3,6,2,7,3,6,1,8,
1>4[8:1],,,,,,6,7,
8h[8:6],,,,,,1,2,
3h[8:6],,,,,,6,,
6h[8:3],,,,,,2,,
{12}15,26,37,48,37,26,
{32}15,8,7,6,5,4,3,2,{16}1b/8b,,,,
{16}
2,4,3,1,5,7,8,6,
2,4,3,1,5,7,8,6,
1/7,,2/8<4[8:1],3,4,,82,,
1>5[16:3],,,,,,,,
1,3,4,2,6,8,7,5,
1,3,4,2,6,8,7,5,
4/8,,3-8[8:1]/7,6,5,,6/3,,
7h[4:1],,,,8,1,2,3,
{8}
4h[4:1],7,6h[4:1],1,4h[4:1],7,6h[4:1],1,
4h[8:2],,,{16}7,6,5-1[8:1]/4-8[8:1],,,,,,,,
{8}46,34,28,65,78,18,56,24,
{16}28,,1,7,1,,26,35,4,4,4,4,4,4,4,4,
{8}6b-4[8:1],6,2b-4[8:1],2,7b-3[8:1],7,1b-5[8:1],1,
8b-3[8:1],8,1b-6[8:1],1,7b-4[8:1],7,2b-5[8:1],2,
6b-1[8:1],6,3b-8[8:1],3,5b-8[8:1],5,4b,4,
{12}1/8h[4:3],1,1,1,1,1,1-4[8:1],1,1,1,,,
{32}1b>8[8:6]/8b<1[8:6],27,36,45,,,,,
,,,,,,,,
,,,,,,,,
,,,,,,,,
{1},,E
