&title=星界のアルペジオ
&artist=yuichi NAGAO
&first=0
&lv_5=14
&des=松软不爱
&des_5=松软不爱
&inote_5=(200){4},{8},,,,,,,,,3,
5,2,6,1,
{4}7h[8:1],{8}3,E7,{4}2,1/E5,
8,7/E3,{8}6,E2,{4}5,
4/E8,3h[8:1],5,{8}6,E3,
{4}7,8/E5,1,2/E7,
{8}3,E8,{4}4,5/E2,6,
7/1>3[16:3],{8}6,5<7[16:3],,4,{4}4qq5[16:7],
,6,{6}7h[6:1],5h[6:1],6h[6:1],
2h[6:1],4h[6:1],3h[6:1],5<7[16:3],{24},,{8}4,3>1[16:3],
,8,{4}8,3/5,6/4>2[16:3],
{8}5,6<8[16:3],,1,{4}1,{8}2,6,
{4}5/3V52[4:1],{8}6,8x,,5/3,{4}6x-3[8:1]/2x-5[8:1],
,2/6V47[4:1],{8}3,1x,,6/4,
{2}7x-4[8:1]/3x-6[8:1],{4}7/3V51[4:1],{8}8,6x,
,3/5,{4}1x/7x<5[8:1],{8}1x,{16}A2,A3,A4,A5,A6,A7,
A8,A1,A2,A3,8x,7,6,5,1x,2,3,4,{8}7b,5,
{4}6/4,{8}3v1[8:1],4x,,6,{4}5xv8[8:1],
2,7x/1,{8}8V64[4:1],1x,,3,
{4}2xV41[4:1],7x,8x<5[8:1],{8}8,1x>4[8:1],
,1,{4}8x-3[8:1]*-5[8:1],8x,8bw4[2:1],
{12},,,,,,,,,1,2,3,
7,6,5,2,3,4,{4}6/5h[4:1],{16}4-6[8:1],,,3,
{48},,,,,,,,,,,,{12}2,3,4,5/6,7,8,2/1h[4:1],,,{4}3-5[8:1],
{12}6,,8x,7,6,5,3/4,{48},,,,,{16}4/6,
,,{8}5/2,{16},7/4,,,{8}8/1,{16}2/7,6/3,{8}4/5,6/4,
{16},5/3,,,7/4,,,5/2,,,{8}8/4,{16}1/6,,,3/8,
,,{8}1/7,{4}2b/8b,{48},,,,,,,,,,,,5x<4[4:9]/4x>5[4:9],E5,B6/B3,Cf,B7/B2,E1,{1},,{4},,{16},,{4}2h[2:1],
{12}E2,E1,E8,
E7,E6,E5,3x,,,{4}2,1/8,
7h[2:1],{12}D8,D1,D2,D3,D4,D5,6x,,,1x,
1x,1x,6<8[8:1],,,{4}2>4[8:1],{16}1x,8,7,6,
{4}5>3[8:1],5x<8[16:3],5x,1,
{16}1x,2,3,4,{4}6/5h[8:1],7<5[8:1],3>1[8:1],
{16}4x,5,6,7,{8}8-4[8:1],8,2-6[8:1],2,7-4[8:1],7,
1-5[8:1],1,7-3[8:1],7,2,2,{12}1/8,7,6,
4/5,3,2,1/8,7,6,{4}5/4-8[8:1],4x/5-1[8:1],
5x/4,{8}2/8,3/7,4/6,5,,2-5[8:1],
{4}5,7,{16}8/3-8[8:1],7,{8}6,,5,
{16},,2,3,{4}4<7[4:1],7>1[6:1],5x,
{8}6,5,3/4-7[8:1],2,,1-6[8:1],{4}2,
3,2h[4:1],{8}7,8,3/1,2,
1,8/7,{4}6h[4:1]/1h[16:1],{8}4,3,{4}2/7<5[8:1],
{8}3,1>3[8:1],{16},,5,6,{4}7,5/8,
{16}4<6[8:1],3,{8}2,,1h[4:1],,8,{4}7<4[4:1],
4>2[6:1],3h[4:1],{16}A1,A8,A7,A6,{8}2/A5,2x-8[8:1],
,4,{4}6-8[8:1],3-5[8:1],1-5[8:1],
E3,{8}4,4,,4/6,{4}5<8[8:1],
{8}4,3,{4}1x/2>5[6:1],{8},6,{16},,4/7,3,
{8}2v5[32:5],6,{4}8,6/4,{12}3,5,4,
{4}6-1[8:1],7-4[8:1],6-2[8:1],7,
1/3,{8}5,4/6<1[6:1],,3,{4}5-1[32:5],
7-3[32:5],7/3,{2}1bq3[2:1],
{4}4,5b<7[8:1],,8/2bq5[4:3],
{8}5,6,{4}7,4,6,
1/7bp4[4:3],{8}4,3,{4}2,5,
3,4/2,{2}1h[4:3]/Ch[4:3],
{4},,2,3h[2:1]/Cf,
,,2/4,3/5,
4/6,5/7,{12}3,4,3,6,5,6,
3,4,2,6,5,7,3x,5x,1x,8bxw4[2:1],,,,,,,,,,,,,,,{4}3x,
2xq4>3[4:5],,,,,7x,
8x<4q8[4:5],
,,{2}B2/E3,
{4}2x,1xqq8pp1[4:5],,,{2}5x,
{4}5x,6x,
8x/7x,8x/1x,{12}2x,3,4,7x,6,5,
1x,2,3,8x-4pp6[1:1]*-4qq2[1:1],,,,,,,,,,,,,,,,,,{4}4xv2[2:1]*v6[2:1],
,,,Ch[4:7],
{1},,{4},,{8}2/5,
3,6/4,7,
8x/1-5[8:1],2,1x/7-4[8:1],8,7x/3V51[4:1],2,6,7-3[8:1]*-4[8:1],
,7x,{16},,2,1,{8}2,3,4/2,5,
6/1-5[8:1],7-4[8:1],1,7,3,6-2[8:1],5/7,6x/8-4[8:1],
,8/4,3,2/5,{16}6,5,{8}7,{16}3,4,{8}2,
1x/8-4[8:1],7,8x/2-5[8:1],1,2x/6V48[4:1],7,3,2>5[8:1],
,2x/6,7h[8:1],1h[8:1],{12}5,3,8,4,6,1,
{8}8/2-8[8:1],7-3[8:1],2,7pp1[16:3],,4,5,6,
,1/7,2,5,{12}4,6,1,5,3,8,
{8}2-6[8:1],2,5-1[8:1],5,{16}2,3,4,5,8,7,6,5,
{6}3/4h[6:1],2bx,{12}1x,8x,{4}2b/7b,{16}4,5,3,6,
{4}2-4[8:1],8/2-8[8:1],{8}5/2-6b[8:1],6,{4}2/7-1[8:1],
7-3[8:1],7/3<7[4:1],{8}1-5[8:1],1,{4}1x,
8b/3b-6[8:1],{8}1,8-3[8:1],{4}7,5-8[8:1],
{8}3,2,{16}1,2,3,4,{8}5/6,7,{4}3/8,
{8}1/2,{16}2,1,{12}8/3h[6:1],,1h[6:1],,7h[6:1],,6h[6:1],,4h[6:1],
,8h[6:1],,2,1,3,5,4,6,7x/1x-5[8:1],,,{4}1/8-4[8:1],
{8}3,2-5[8:1],1/7,2x/8-4[8:1],,3/8,
{4}1v3[8:1],{16}4x,5,6,7,{4}2bx/8x-4[8:1],8/1-5[8:1],
{8}6,7-4[8:1],8/2,7x/3>5[8:3],,,{4}5>1[4:1],
{16}1x,8,7,6,{4}5,{32}2b/1xh[4:1],3x,4x,5x,,,,,,,,,7b/8xh[4:1],6x,5x,4x,
,,,,,,,,1b/6xh[4:3],2,3,4,{16}5,{32}7,8,1,2,3,4,{16}5,{32}7,8,1,2,3,4,{16}5,{32}7,8,
1-5[8:1],2,3,4,{8}5/7x,{4}1bx/8bx,{8},2b-4[8:1],,2,
{4}7b-5[8:1],{8}7,2b-8[8:1],,2/7,{4}7b-5[8:1],
{8}2/7,2b-4[8:1],2,7/2,7b-1[8:1],7,{16}4/7,3,{8}2b-8[8:1],
2,{16}2/5,6,{8}7b-5[8:1],7,{16}7/4,3,2,1,8,7,6,5,
4x/8x,7,6,5,{4}4x-7[8:1]/8x-3[8:1],{48},,,,,,,,,,,,1bx>1[2:3]*<1[2:3],B1,Cf,B6`B4,{6}A6`A4,
,,,,,,,,,,,,,,,{2}1-6-3-8-5[8:19]*-4-7-2-5[8:19],
E
