&title=群青シグナル
&artist=テヅカ
&first=-0.53
&lv_5=14+
&des_5=qjm☆LanD
&inote_5=
(206){4},,,,,,,,{2}C,
{4}4/5<8[1:1],4,
4,4,4,4,
4,4/5<8[4:5],4,4,
4,4,4,4,
4,4,{8}4/8,4,7/3,7,
6/2,2,5/1,5,7/3,2,{4}7v6[8:1]/3v2[8:1],
{8},Cf,{4},{8}6/5,7,4/3,2,
6/5,8,4/3,1,{16}7,8,{8}7,{16}2,1,{8}2,
{16}6,5,{8}6,3,3,6/5,7,8/1,2,
3/4,5,6/7,8,1/7p4[2:1],1,1,1,
1b,1b,{4}1b,{8}8-6[8:1],8,1-5[8:1],1,
7-4[8:1],7,1-3[8:1],1,6,7,8,1/2,
8/3,1/2,{4}8/3,8-4[8:1],B8f/8b<5[8:1]*-5[8:1],
E8f/8b-3[8:1]*>3[8:1],8b/E1f,6h[8:1],8h[8:1],
2h[8:1],4b,{16}4,3,{8}4,{16}5,6,{8}5,
3,3-1[8:1],,3-6[8:1],,3-7[8:1],,3w7[8:1],
{2},{16}3,4,{8}3,{16}6,5,{8}6,
7b,8b,1b,2b-5[8:1],,6-1[8:1],,2-7[8:1],
{2},{16}7,8,{8}7,{16}2>4[4:1],1,{8}2,
8,7,6,5,2,{16}4,3,4,3,{8}4,
7,{16}5,6,5,6,{8}5,1,8/1,7,2/7,
3,3/6,5,5/4,,5/4,6/3,5-8[8:1]/4-1[8:1],
7/2,5/4,{4},{8}2h[8:3],{4},{8}3h[8:3],
{4},4,{8},5,{4},6<2[2:1],
2,{2},{8}8,
7,6,5,,4,{4}3-6[8:1],
3/7-2[8:1],7/1-5[8:1],,{8}8,7,
6/5,3-7[8:1],,3/6-3[8:1],,6/1-6[8:1],,1,
{4}4pp6[8:1]*qq2[8:1],4-8[2:1],,,,1h[16:17],
,{32}B8,B7,{16}E7,{8},{32}B2,
B3,{16}E4,{8},{32}B1,C,{16}B5,{8},{4}1-5[8:1],1/8<5[8:3],
{8}4,3,2,1,{4}8w4[8:1],8b,
,8-3[8:1],8/2-6[8:1],2/7-4-8-3[8:3],
,,,{8}4/6,4,
4/B6,4,{4}6/4-8[8:1],4/6-2[8:1],6/1-4[8:1],
4-7[8:1],7-2[8:1],2-5[8:1],5-8[8:1],
{2}8-4[8:1],1h[4:3],
{4},Cf,,,,{8}2-6[8:1],
6-2[8:1],{2},{8}6/5,
7,8/1,{32}2x,B2,C,B6,{8}A6,{32}8x,B8,C,B4,{8}A4,3,
3/4,3,3/2,3/5,3,3/1,{4},{8}1,
8,{4}7-5[8:1],7-4[8:1],7-3[8:1],
7-2[8:1],7-5-1[4:1],{8},,,3,
4,5,6,7b/B3/B2/E3f,,2b/E7f/B7/B6,,B7/E7/B6/B2/E3/B3/B8/B1/B5/B4/E1/E5/Cf,
,8,7,6,{4}5-1[8:1],5-7[8:1],
5-2[8:1],5-8[8:1],5-3[8:1],5w1[8:1],
{2},E7,
E3,{8}C,{4},{8}C,
{4},E8,B8,B1,
E2,E4,B4,B5,
E6,C,{8}6/5,7,6/5,4,
6/5,8,6/5,2,3/4,5,3/4,2,
3/4,6,3/4,8,{24}1,2,3,4,{12},{24}1,8,7,6,{12},{24}1,
2,3,4,{12},{24}1-5[8:1],8,7,6,{12},{2}Cf,
{4}1-5[8:1],1,7<4[8:1],7/8,
{8}2-6-4-1[4:1],7,{4}2,8-4[8:1],{8}8/2-5[8:1],1,
2/7-4[8:1],8,7/1-5[8:1],2,{4}1/8-4[8:1],B8f/8<5[8:1]*<5[8:1],
E8f/8>3[8:1]*>3[8:1],E1f/8w4[8:1]*w4[8:1],{2}B8f,
{4}8h[2:1],{8}6,5,{4}4>8[4:1],{16}8,7,6,5,
{4}4>8[4:1],{16}8,7,6,5,{4}4,1-5[8:1],
1>4[8:1]/6<8[8:1],6/1,2h[8:1],4h[8:1],
6h[8:1],8h[8:1],{2}1,
{8}8/1,7,{4}6-1[8:1],6/2-5-1[4:1],2/7v4[8:1],
7v1-6-3[8:3],{2},{4}8-4[8:1],
2-5[8:1],7-3[8:1],{2}1-5[8:1],
{8}8,7/2,6/3,5/4,{4}3-7[8:1],8h[4:1],
{8}2,3,4,5,{4}8-4[8:1],3-7[8:1],
8V25[8:1],6-1[8:1],2pp5[2:1],6pp1[4:1],
{2},7h[2:1]/3h[2:1],
{32}D7/D3,A6/A2,D6/D2,A5/A1,D5/D1,A4/A8,{16}D4/D8,{4},{8}8/7,6,1/2,3,
7/2,7/2,{16}8-4-8[4:1],1,8,1,{2}8b-5[4:1]*-3[4:1],
{4},{8}7h[2:1],6,5,4,{4}3,
{16}6,5,{8}6,{16}3,4,{8}3,7,7,{16}6,5,{8}6,
2,2,{16}3,4,{8}3,{16}6,5,6,5,6,4,6,4,
5,3,5,3,4,2,4,2,{8},7-4[8:1],1-5[8:1],7,
{4}1,{8}8-4[8:1],2-5[8:1],8,2,{4},{12}6,
5,4,6,5,4,{8}7,7,6/5,6/5,
4,4,3/2,3/2,,7-4[8:1],1-3[8:1],7-3[8:1],
{2},{4}1-5[8:1],1,
{8}7/8,7/8,1/2,1/2,{12}7,5,6,2,4,3,
6,5,6,3,4,3,{8}8xh[8:3],{24}7,6,5,4,3,2,1,{12},{8}1xh[8:3],
{24}2,3,4,5,6,7,8,{12},{16}6,5,{8}6,{16}3,4,{8}3,
{16}6,5,{8}6,{16}3,4,{8}3,{4},{8}8/1,8/1,
8/1,8/1,8/1,8/1,8/1,8/1,7/3,7/3,
6-3[8:1]/2-7[8:1],6/2,{4}Cf/6pp4[1:1]/2pp8[1:1],{2},,,{8}7b,
8b,{4}1b-7[8:1]*-6[8:1],B7f/1b-4[8:1]*-3[8:1],B3f/1b-5[8:1]*-5[8:1],
Cf/1bw5[4:3]*w5[4:3],1b,,,,5/4pp1>3[8:3],
{2}7-3[8:1],
{8}8-4[8:1],7,8/2-6[8:1],1,8-5-3-7[8:3],1,{4}8,
{8}1-4[8:1],2,{4}6-2[8:1],6<1[8:1]*>3[8:1],6z2[4:1],
{1}2>4-8<6[2:1],
{8}8h[2:1],7,6,5,{4}4>8[4:1],{16}8,7,6,5,
{4}4>8[4:1],{16}8,7,6,5,{4}4,8-4[8:1],
8<5[8:1]/3>1[8:1],8q5[8:1],8-6[8:1]/4>1[8:1],4qq8[4:3],
{1},{16}1,
8,{8}1,{4}2/7-4[8:1],7-3[8:1],1-5[8:1],
1-4[8:1],7-3[8:1],7-2[8:1],{8}1-5[8:1],1,
1/7-3[8:1],7,7/2-5[8:1],2,2/6-3[8:1],6,6/2<7[8:1],2,
2/6>3[8:1],6,6/1v4[8:1],1,{4}1,8h[8:5],
{8}1,2,3,4,{4}5-1[8:1],5,
5-7[8:1]*-3[8:1],5,5pp7[8:1]*qq3[8:1],5,
5-8[8:1]*-2[8:1],5-1[8:3],{8},,,,,,,5,
5/4,5,5/6,5,
5/3,5,5/7,5,{4}1b,1b,
1b,{16}7,8,{8}6,{16}2,1,{8}3,{16}8,1,{8}8,
{1}1pp4[2:3],
,{4}1-7[8:1],
1-3[8:1],1-6[8:1],1-4[8:1],
1-5[8:1],1>4[8:1],1<6[8:1],1q6[8:1],
1p4[8:1],1-5[8:1],{2}1w5[4:5],
,,,{16}6,
5,{8}6,{16}3,4,{8}3,
{16}5,4,5,4,5,4,{8}5,{16}7,8,{8}6,{16}2,1,{8}3,
{16}8,1,8,1,8,1,{8}8,{16}6,5,7,4,6,5,7,4,
6,5,7,4,{8},{16}3,4,2,5,3,4,2,5,3,4,
2,5,3,4,{4}2,{8}6/5,7,4/3,2,
6/5,8,4/3,1,7/8,6,1/2,3,
7/8,5,1/2,4,7/6,7/5,7/4,7/3,
2/1,2/8,2/7,2/6,,8/4,7/3,6/2,
7/3,6-3[8:1]/2-7[8:1],{4},{2}Cf,
{1},{2}C,
{4}4/5<8[1:1],4,
4,4,4,4,
4,4/5<8[4:5],4,4,
4,4,4,4,
4,4,{8}4/8,4,7/3,7,
6/2,2,5/1,5,7/3,2,{4}7v6[8:1]/3v2[8:1],
{8},C,
E
